  0
SECTION
  2
HEADER
  9
$ACADVER
  1
AC1015
  9
$ACADMAINTVER
 70
    20
  9
$DWGCODEPAGE
  3
ANSI_932
  9
$INSBASE
 10
0.0
 20
0.0
 30
0.0
  9
$EXTMIN
 10
114.0
 20
4.0
 30
0.0
  9
$EXTMAX
 10
2784.0
 20
2024.0
 30
0.0
  9
$LIMMIN
 10
0.0
 20
0.0
  9
$LIMMAX
 10
29700.0
 20
21000.0
  9
$ORTHOMODE
 70
     1
  9
$REGENMODE
 70
     1
  9
$FILLMODE
 70
     1
  9
$QTEXTMODE
 70
     0
  9
$MIRRTEXT
 70
     1
  9
$LTSCALE
 40
4.0
  9
$ATTMODE
 70
     1
  9
$TEXTSIZE
 40
25.0
  9
$TRACEWID
 40
1.0
  9
$TEXTSTYLE
  7
Standard
  9
$CLAYER
  8
実形
  9
$CELTYPE
  6
ByLayer
  9
$CECOLOR
 62
   256
  9
$CELTSCALE
 40
1.0
  9
$DISPSILH
 70
     0
  9
$DIMSCALE
 40
1.0
  9
$DIMASZ
 40
35.0
  9
$DIMEXO
 40
65.0
  9
$DIMDLI
 40
3.75
  9
$DIMRND
 40
0.0
  9
$DIMDLE
 40
0.0
  9
$DIMEXE
 40
0.0
  9
$DIMTP
 40
0.0
  9
$DIMTM
 40
0.0
  9
$DIMTXT
 40
25.0
  9
$DIMCEN
 40
2.5
  9
$DIMTSZ
 40
0.0
  9
$DIMTOL
 70
     0
  9
$DIMLIM
 70
     0
  9
$DIMTIH
 70
     0
  9
$DIMTOH
 70
     0
  9
$DIMSE1
 70
     0
  9
$DIMSE2
 70
     0
  9
$DIMTAD
 70
     1
  9
$DIMZIN
 70
     8
  9
$DIMBLK
  1
DotSmall
  9
$DIMASO
 70
     1
  9
$DIMSHO
 70
     1
  9
$DIMPOST
  1

  9
$DIMAPOST
  1

  9
$DIMALT
 70
     0
  9
$DIMALTD
 70
     3
  9
$DIMALTF
 40
0.03937007874016
  9
$DIMLFAC
 40
1.0
  9
$DIMTOFL
 70
     1
  9
$DIMTVP
 40
0.0
  9
$DIMTIX
 70
     0
  9
$DIMSOXD
 70
     0
  9
$DIMSAH
 70
     0
  9
$DIMBLK1
  1

  9
$DIMBLK2
  1

  9
$DIMSTYLE
  2
ISO-25
  9
$DIMCLRD
 70
     0
  9
$DIMCLRE
 70
     0
  9
$DIMCLRT
 70
     0
  9
$DIMTFAC
 40
1.0
  9
$DIMGAP
 40
6.25
  9
$DIMJUST
 70
     0
  9
$DIMSD1
 70
     0
  9
$DIMSD2
 70
     0
  9
$DIMTOLJ
 70
     0
  9
$DIMTZIN
 70
     8
  9
$DIMALTZ
 70
     0
  9
$DIMALTTZ
 70
     0
  9
$DIMUPT
 70
     0
  9
$DIMDEC
 70
     2
  9
$DIMTDEC
 70
     2
  9
$DIMALTU
 70
     2
  9
$DIMALTTD
 70
     3
  9
$DIMTXSTY
  7
Standard
  9
$DIMAUNIT
 70
     0
  9
$DIMADEC
 70
     0
  9
$DIMALTRND
 40
0.0
  9
$DIMAZIN
 70
     0
  9
$DIMDSEP
 70
    46
  9
$DIMATFIT
 70
     3
  9
$DIMFRAC
 70
     0
  9
$DIMLDRBLK
  1
Open30
  9
$DIMLUNIT
 70
     2
  9
$DIMLWD
 70
    18
  9
$DIMLWE
 70
    18
  9
$DIMTMOVE
 70
     0
  9
$LUNITS
 70
     2
  9
$LUPREC
 70
     2
  9
$SKETCHINC
 40
1.0
  9
$FILLETRAD
 40
30.0
  9
$AUNITS
 70
     0
  9
$AUPREC
 70
     0
  9
$MENU
  1
.
  9
$ELEVATION
 40
0.0
  9
$PELEVATION
 40
0.0
  9
$THICKNESS
 40
0.0
  9
$LIMCHECK
 70
     1
  9
$CHAMFERA
 40
10.0
  9
$CHAMFERB
 40
10.0
  9
$CHAMFERC
 40
20.0
  9
$CHAMFERD
 40
0.0
  9
$SKPOLY
 70
     0
  9
$TDCREATE
 40
2451673.575802199
  9
$TDUCREATE
 40
2451673.200802199
  9
$TDUPDATE
 40
2458807.498280347
  9
$TDUUPDATE
 40
2458807.123280347
  9
$TDINDWG
 40
0.5721102546
  9
$TDUSRTIMER
 40
0.5721095602
  9
$USRTIMER
 70
     1
  9
$ANGBASE
 50
0.0
  9
$ANGDIR
 70
     0
  9
$PDMODE
 70
     3
  9
$PDSIZE
 40
0.0
  9
$PLINEWID
 40
0.0
  9
$SPLFRAME
 70
     0
  9
$SPLINETYPE
 70
     6
  9
$SPLINESEGS
 70
     8
  9
$HANDSEED
  5
D51
  9
$SURFTAB1
 70
     6
  9
$SURFTAB2
 70
     6
  9
$SURFTYPE
 70
     6
  9
$SURFU
 70
     6
  9
$SURFV
 70
     6
  9
$UCSBASE
  2

  9
$UCSNAME
  2

  9
$UCSORG
 10
0.0
 20
0.0
 30
0.0
  9
$UCSXDIR
 10
1.0
 20
0.0
 30
0.0
  9
$UCSYDIR
 10
0.0
 20
1.0
 30
0.0
  9
$UCSORTHOREF
  2

  9
$UCSORTHOVIEW
 70
     0
  9
$UCSORGTOP
 10
0.0
 20
0.0
 30
0.0
  9
$UCSORGBOTTOM
 10
0.0
 20
0.0
 30
0.0
  9
$UCSORGLEFT
 10
0.0
 20
0.0
 30
0.0
  9
$UCSORGRIGHT
 10
0.0
 20
0.0
 30
0.0
  9
$UCSORGFRONT
 10
0.0
 20
0.0
 30
0.0
  9
$UCSORGBACK
 10
0.0
 20
0.0
 30
0.0
  9
$PUCSBASE
  2

  9
$PUCSNAME
  2

  9
$PUCSORG
 10
0.0
 20
0.0
 30
0.0
  9
$PUCSXDIR
 10
1.0
 20
0.0
 30
0.0
  9
$PUCSYDIR
 10
0.0
 20
1.0
 30
0.0
  9
$PUCSORTHOREF
  2

  9
$PUCSORTHOVIEW
 70
     0
  9
$PUCSORGTOP
 10
0.0
 20
0.0
 30
0.0
  9
$PUCSORGBOTTOM
 10
0.0
 20
0.0
 30
0.0
  9
$PUCSORGLEFT
 10
0.0
 20
0.0
 30
0.0
  9
$PUCSORGRIGHT
 10
0.0
 20
0.0
 30
0.0
  9
$PUCSORGFRONT
 10
0.0
 20
0.0
 30
0.0
  9
$PUCSORGBACK
 10
0.0
 20
0.0
 30
0.0
  9
$USERI1
 70
     0
  9
$USERI2
 70
     0
  9
$USERI3
 70
     0
  9
$USERI4
 70
     0
  9
$USERI5
 70
     0
  9
$USERR1
 40
0.0
  9
$USERR2
 40
0.0
  9
$USERR3
 40
0.0
  9
$USERR4
 40
0.0
  9
$USERR5
 40
0.0
  9
$WORLDVIEW
 70
     1
  9
$SHADEDGE
 70
     3
  9
$SHADEDIF
 70
    70
  9
$TILEMODE
 70
     1
  9
$MAXACTVP
 70
    64
  9
$PINSBASE
 10
0.0
 20
0.0
 30
0.0
  9
$PLIMCHECK
 70
     0
  9
$PEXTMIN
 10
27.8447512626648
 20
20.24591643810271
 30
0.0
  9
$PEXTMAX
 10
250.6027613639831
 20
182.2132479429245
 30
0.0
  9
$PLIMMIN
 10
-3.757080078125
 20
-3.757083177566528
  9
$PLIMMAX
 10
293.2112426757813
 20
206.2162444591522
  9
$UNITMODE
 70
     0
  9
$VISRETAIN
 70
     1
  9
$PLINEGEN
 70
     0
  9
$PSLTSCALE
 70
     1
  9
$TREEDEPTH
 70
  3020
  9
$CMLSTYLE
  2
Standard
  9
$CMLJUST
 70
     0
  9
$CMLSCALE
 40
20.0
  9
$PROXYGRAPHICS
 70
     1
  9
$MEASUREMENT
 70
     1
  9
$CELWEIGHT
370
    -1
  9
$ENDCAPS
280
     0
  9
$JOINSTYLE
280
     0
  9
$LWDISPLAY
290
     0
  9
$INSUNITS
 70
     4
  9
$HYPERLINKBASE
  1

  9
$STYLESHEET
  1

  9
$XEDIT
290
     1
  9
$CEPSNTYPE
380
     0
  9
$PSTYLEMODE
290
     1
  9
$FINGERPRINTGUID
  2
{C8EA1F16-24C9-11D4-9416-CE0A3B32152F}
  9
$VERSIONGUID
  2
{CEB2541E-8E43-46B4-8F50-CF9DF0544131}
  9
$EXTNAMES
290
     1
  9
$PSVPSCALE
 40
0.0
  9
$OLESTARTUP
290
     0
  0
ENDSEC
  0
SECTION
  2
CLASSES
  0
CLASS
  1
ACDBDICTIONARYWDFLT
  2
AcDbDictionaryWithDefault
  3
ObjectDBX Classes
 90
        0
280
     0
281
     0
  0
CLASS
  1
ACDBPLACEHOLDER
  2
AcDbPlaceHolder
  3
ObjectDBX Classes
 90
        0
280
     0
281
     0
  0
CLASS
  1
LAYOUT
  2
AcDbLayout
  3
ObjectDBX Classes
 90
        0
280
     0
281
     0
  0
CLASS
  1
TABLESTYLE
  2
AcDbTableStyle
  3
ObjectDBX Classes
 90
     2047
280
     0
281
     0
  0
CLASS
  1
DICTIONARYVAR
  2
AcDbDictionaryVar
  3
ObjectDBX Classes
 90
        0
280
     0
281
     0
  0
CLASS
  1
SORTENTSTABLE
  2
AcDbSortentsTable
  3
ObjectDBX Classes
 90
        0
280
     0
281
     0
  0
ENDSEC
  0
SECTION
  2
TABLES
  0
TABLE
  2
VPORT
  5
8
330
0
100
AcDbSymbolTable
 70
     2
  0
VPORT
  5
D45
330
8
100
AcDbSymbolTableRecord
100
AcDbViewportTableRecord
  2
*Active
 70
     0
 10
0.0
 20
0.0
 11
1.0
 21
1.0
 12
1379.705673278125
 22
1028.687447292347
 13
0.0
 23
0.0
 14
10.0
 24
10.0
 15
10.0
 25
10.0
 16
0.0
 26
0.0
 36
1.0
 17
0.0
 27
0.0
 37
0.0
 40
2226.422162113374
 41
1.29038112522686
 42
50.0
 43
0.0
 44
0.0
 50
0.0
 51
0.0
 71
     0
 72
   100
 73
     1
 74
     3
 75
     0
 76
     0
 77
     0
 78
     0
281
     0
 65
     1
110
0.0
120
0.0
130
0.0
111
1.0
121
0.0
131
0.0
112
0.0
122
1.0
132
0.0
 79
     0
146
0.0
  0
ENDTAB
  0
TABLE
  2
LTYPE
  5
5
330
0
100
AcDbSymbolTable
 70
    46
  0
LTYPE
  5
14
330
5
100
AcDbSymbolTableRecord
100
AcDbLinetypeTableRecord
  2
ByBlock
 70
     0
  3

 72
    65
 73
     0
 40
0.0
  0
LTYPE
  5
15
330
5
100
AcDbSymbolTableRecord
100
AcDbLinetypeTableRecord
  2
ByLayer
 70
     0
  3

 72
    65
 73
     0
 40
0.0
  0
LTYPE
  5
16
330
5
100
AcDbSymbolTableRecord
100
AcDbLinetypeTableRecord
  2
Continuous
 70
     0
  3
Solid line
 72
    65
 73
     0
 40
0.0
  0
LTYPE
  5
34
330
5
100
AcDbSymbolTableRecord
100
AcDbLinetypeTableRecord
  2
ACAD_ISO02W100
 70
     0
  3
ISO dash __ __ __ __ __ __ __ __ __ __ __ __ __
 72
    65
 73
     2
 40
15.0
 49
12.0
 74
     0
 49
-3.0
 74
     0
  0
LTYPE
  5
35
330
5
100
AcDbSymbolTableRecord
100
AcDbLinetypeTableRecord
  2
ACAD_ISO03W100
 70
     0
  3
ISO dash space __    __    __    __    __    __
 72
    65
 73
     2
 40
30.0
 49
12.0
 74
     0
 49
-18.0
 74
     0
  0
LTYPE
  5
36
330
5
100
AcDbSymbolTableRecord
100
AcDbLinetypeTableRecord
  2
ACAD_ISO04W100
 70
     0
  3
ISO long-dash dot ____ . ____ . ____ . ____ . _
 72
    65
 73
     4
 40
30.0
 49
24.0
 74
     0
 49
-3.0
 74
     0
 49
0.0
 74
     0
 49
-3.0
 74
     0
  0
LTYPE
  5
37
330
5
100
AcDbSymbolTableRecord
100
AcDbLinetypeTableRecord
  2
ACAD_ISO05W100
 70
     0
  3
ISO long-dash double-dot ____ .. ____ .. ____ .
 72
    65
 73
     6
 40
34.0
 49
24.0
 74
     0
 49
-3.0
 74
     0
 49
0.5
 74
     0
 49
-3.0
 74
     0
 49
0.5
 74
     0
 49
-3.0
 74
     0
  0
LTYPE
  5
38
330
5
100
AcDbSymbolTableRecord
100
AcDbLinetypeTableRecord
  2
ACAD_ISO06W100
 70
     0
  3
ISO long-dash triple-dot ____ ... ____ ... ____
 72
    65
 73
     8
 40
37.5
 49
24.0
 74
     0
 49
-3.0
 74
     0
 49
0.5
 74
     0
 49
-3.0
 74
     0
 49
0.5
 74
     0
 49
-3.0
 74
     0
 49
0.5
 74
     0
 49
-3.0
 74
     0
  0
LTYPE
  5
39
330
5
100
AcDbSymbolTableRecord
100
AcDbLinetypeTableRecord
  2
ACAD_ISO07W100
 70
     0
  3
ISO dot . . . . . . . . . . . . . . . . . . . .
 72
    65
 73
     2
 40
3.0
 49
0.0
 74
     0
 49
-3.0
 74
     0
  0
LTYPE
  5
3A
330
5
100
AcDbSymbolTableRecord
100
AcDbLinetypeTableRecord
  2
ACAD_ISO08W100
 70
     0
  3
ISO long-dash short-dash ____ __ ____ __ ____ _
 72
    65
 73
     4
 40
36.0
 49
24.0
 74
     0
 49
-3.0
 74
     0
 49
6.0
 74
     0
 49
-3.0
 74
     0
  0
LTYPE
  5
3B
330
5
100
AcDbSymbolTableRecord
100
AcDbLinetypeTableRecord
  2
ACAD_ISO09W100
 70
     0
  3
ISO long-dash double-short-dash ____ __ __ ____
 72
    65
 73
     6
 40
45.0
 49
24.0
 74
     0
 49
-3.0
 74
     0
 49
6.0
 74
     0
 49
-3.0
 74
     0
 49
6.0
 74
     0
 49
-3.0
 74
     0
  0
LTYPE
  5
3C
330
5
100
AcDbSymbolTableRecord
100
AcDbLinetypeTableRecord
  2
ACAD_ISO10W100
 70
     0
  3
ISO dash dot __ . __ . __ . __ . __ . __ . __ .
 72
    65
 73
     4
 40
18.0
 49
12.0
 74
     0
 49
-3.0
 74
     0
 49
0.0
 74
     0
 49
-3.0
 74
     0
  0
LTYPE
  5
3D
330
5
100
AcDbSymbolTableRecord
100
AcDbLinetypeTableRecord
  2
ACAD_ISO11W100
 70
     0
  3
ISO double-dash dot __ __ . __ __ . __ __ . __ 
 72
    65
 73
     6
 40
33.0
 49
12.0
 74
     0
 49
-3.0
 74
     0
 49
12.0
 74
     0
 49
-3.0
 74
     0
 49
0.0
 74
     0
 49
-3.0
 74
     0
  0
LTYPE
  5
3E
330
5
100
AcDbSymbolTableRecord
100
AcDbLinetypeTableRecord
  2
ACAD_ISO12W100
 70
     0
  3
ISO dash double-dot __ . . __ . . __ . . __ . .
 72
    65
 73
     6
 40
21.0
 49
12.0
 74
     0
 49
-3.0
 74
     0
 49
0.0
 74
     0
 49
-3.0
 74
     0
 49
0.0
 74
     0
 49
-3.0
 74
     0
  0
LTYPE
  5
3F
330
5
100
AcDbSymbolTableRecord
100
AcDbLinetypeTableRecord
  2
ACAD_ISO13W100
 70
     0
  3
ISO double-dash double-dot __ __ . . __ __ . . 
 72
    65
 73
     8
 40
36.0
 49
12.0
 74
     0
 49
-3.0
 74
     0
 49
12.0
 74
     0
 49
-3.0
 74
     0
 49
0.0
 74
     0
 49
-3.0
 74
     0
 49
0.0
 74
     0
 49
-3.0
 74
     0
  0
LTYPE
  5
40
330
5
100
AcDbSymbolTableRecord
100
AcDbLinetypeTableRecord
  2
ACAD_ISO14W100
 70
     0
  3
ISO dash triple-dot __ . . . __ . . . __ . . . 
 72
    65
 73
     8
 40
24.0
 49
12.0
 74
     0
 49
-3.0
 74
     0
 49
0.0
 74
     0
 49
-3.0
 74
     0
 49
0.0
 74
     0
 49
-3.0
 74
     0
 49
0.0
 74
     0
 49
-3.0
 74
     0
  0
LTYPE
  5
41
330
5
100
AcDbSymbolTableRecord
100
AcDbLinetypeTableRecord
  2
ACAD_ISO15W100
 70
     0
  3
ISO double-dash triple-dot __ __ . . . __ __ . 
 72
    65
 73
    10
 40
39.0
 49
12.0
 74
     0
 49
-3.0
 74
     0
 49
12.0
 74
     0
 49
-3.0
 74
     0
 49
0.0
 74
     0
 49
-3.0
 74
     0
 49
0.0
 74
     0
 49
-3.0
 74
     0
 49
0.0
 74
     0
 49
-3.0
 74
     0
  0
LTYPE
  5
42
330
5
100
AcDbSymbolTableRecord
100
AcDbLinetypeTableRecord
  2
BATTING
 70
     0
  3
Batting SSSSSSSSSSSSSSSSSSSSSSSSSSSSSSSSSSSSSSS
 72
    65
 73
     4
 40
10.16254
 49
0.00254
 74
     0
 49
-2.54
 74
     4
 75
   134
340
33
 46
2.54
 50
0.0
 44
-2.54
 45
0.0
 49
-5.08
 74
     4
 75
   134
340
33
 46
2.54
 50
180.0
 44
2.54
 45
0.0
 49
-2.54
 74
     0
  0
LTYPE
  5
43
330
5
100
AcDbSymbolTableRecord
100
AcDbLinetypeTableRecord
  2
BORDER
 70
     0
  3
Border __ __ . __ __ . __ __ . __ __ . __ __ .
 72
    65
 73
     6
 40
44.45
 49
12.7
 74
     0
 49
-6.349999999999999
 74
     0
 49
12.7
 74
     0
 49
-6.349999999999999
 74
     0
 49
0.0
 74
     0
 49
-6.349999999999999
 74
     0
  0
LTYPE
  5
44
330
5
100
AcDbSymbolTableRecord
100
AcDbLinetypeTableRecord
  2
BORDER2
 70
     0
  3
Border (.5x) __.__.__.__.__.__.__.__.__.__.__.
 72
    65
 73
     6
 40
22.225
 49
6.349999999999999
 74
     0
 49
-3.174999999999999
 74
     0
 49
6.349999999999999
 74
     0
 49
-3.174999999999999
 74
     0
 49
0.0
 74
     0
 49
-3.174999999999999
 74
     0
  0
LTYPE
  5
45
330
5
100
AcDbSymbolTableRecord
100
AcDbLinetypeTableRecord
  2
BORDERX2
 70
     0
  3
Border (2x) ____  ____  .  ____  ____  .  ___
 72
    65
 73
     6
 40
88.9
 49
25.4
 74
     0
 49
-12.7
 74
     0
 49
25.4
 74
     0
 49
-12.7
 74
     0
 49
0.0
 74
     0
 49
-12.7
 74
     0
  0
LTYPE
  5
46
330
5
100
AcDbSymbolTableRecord
100
AcDbLinetypeTableRecord
  2
CENTER
 70
     0
  3
Center ____ _ ____ _ ____ _ ____ _ ____ _ ____
 72
    65
 73
     4
 40
50.8
 49
31.75
 74
     0
 49
-6.349999999999999
 74
     0
 49
6.349999999999999
 74
     0
 49
-6.349999999999999
 74
     0
  0
LTYPE
  5
47
330
5
100
AcDbSymbolTableRecord
100
AcDbLinetypeTableRecord
  2
CENTER2
 70
     0
  3
Center (.5x) ___ _ ___ _ ___ _ ___ _ ___ _ ___
 72
    65
 73
     4
 40
28.575
 49
19.05
 74
     0
 49
-3.174999999999999
 74
     0
 49
3.174999999999999
 74
     0
 49
-3.174999999999999
 74
     0
  0
LTYPE
  5
48
330
5
100
AcDbSymbolTableRecord
100
AcDbLinetypeTableRecord
  2
CENTERX2
 70
     0
  3
Center (2x) ________  __  ________  __  _____
 72
    65
 73
     4
 40
101.6
 49
63.5
 74
     0
 49
-12.7
 74
     0
 49
12.7
 74
     0
 49
-12.7
 74
     0
  0
LTYPE
  5
49
330
5
100
AcDbSymbolTableRecord
100
AcDbLinetypeTableRecord
  2
DASHDOT
 70
     0
  3
Dash dot __ . __ . __ . __ . __ . __ . __ . __
 72
    65
 73
     4
 40
25.4
 49
12.7
 74
     0
 49
-6.349999999999999
 74
     0
 49
0.0
 74
     0
 49
-6.349999999999999
 74
     0
  0
LTYPE
  5
4A
330
5
100
AcDbSymbolTableRecord
100
AcDbLinetypeTableRecord
  2
DASHDOT2
 70
     0
  3
Dash dot (.5x) _._._._._._._._._._._._._._._.
 72
    65
 73
     4
 40
12.7
 49
6.349999999999999
 74
     0
 49
-3.174999999999999
 74
     0
 49
0.0
 74
     0
 49
-3.174999999999999
 74
     0
  0
LTYPE
  5
4B
330
5
100
AcDbSymbolTableRecord
100
AcDbLinetypeTableRecord
  2
DASHDOTX2
 70
     0
  3
Dash dot (2x) ____  .  ____  .  ____  .  ___
 72
    65
 73
     4
 40
50.8
 49
25.4
 74
     0
 49
-12.7
 74
     0
 49
0.0
 74
     0
 49
-12.7
 74
     0
  0
LTYPE
  5
4C
330
5
100
AcDbSymbolTableRecord
100
AcDbLinetypeTableRecord
  2
DASHED
 70
     0
  3
Dashed __ __ __ __ __ __ __ __ __ __ __ __ __ _
 72
    65
 73
     2
 40
19.05
 49
12.7
 74
     0
 49
-6.349999999999999
 74
     0
  0
LTYPE
  5
4D
330
5
100
AcDbSymbolTableRecord
100
AcDbLinetypeTableRecord
  2
DASHED2
 70
     0
  3
Dashed (.5x) _ _ _ _ _ _ _ _ _ _ _ _ _ _ _ _ _
 72
    65
 73
     2
 40
9.524999999999998
 49
6.349999999999999
 74
     0
 49
-3.174999999999999
 74
     0
  0
LTYPE
  5
4E
330
5
100
AcDbSymbolTableRecord
100
AcDbLinetypeTableRecord
  2
DASHEDX2
 70
     0
  3
Dashed (2x) ____  ____  ____  ____  ____  ___
 72
    65
 73
     2
 40
38.1
 49
25.4
 74
     0
 49
-12.7
 74
     0
  0
LTYPE
  5
4F
330
5
100
AcDbSymbolTableRecord
100
AcDbLinetypeTableRecord
  2
DIVIDE
 70
     0
  3
Divide ____ . . ____ . . ____ . . ____ . . ____
 72
    65
 73
     6
 40
31.75
 49
12.7
 74
     0
 49
-6.349999999999999
 74
     0
 49
0.0
 74
     0
 49
-6.349999999999999
 74
     0
 49
0.0
 74
     0
 49
-6.349999999999999
 74
     0
  0
LTYPE
  5
50
330
5
100
AcDbSymbolTableRecord
100
AcDbLinetypeTableRecord
  2
DIVIDE2
 70
     0
  3
Divide (.5x) __..__..__..__..__..__..__..__.._
 72
    65
 73
     6
 40
15.875
 49
6.349999999999999
 74
     0
 49
-3.174999999999999
 74
     0
 49
0.0
 74
     0
 49
-3.174999999999999
 74
     0
 49
0.0
 74
     0
 49
-3.174999999999999
 74
     0
  0
LTYPE
  5
51
330
5
100
AcDbSymbolTableRecord
100
AcDbLinetypeTableRecord
  2
DIVIDEX2
 70
     0
  3
Divide (2x) ________  .  .  ________  .  .  _
 72
    65
 73
     6
 40
63.49999999999999
 49
25.4
 74
     0
 49
-12.7
 74
     0
 49
0.0
 74
     0
 49
-12.7
 74
     0
 49
0.0
 74
     0
 49
-12.7
 74
     0
  0
LTYPE
  5
52
330
5
100
AcDbSymbolTableRecord
100
AcDbLinetypeTableRecord
  2
DOT
 70
     0
  3
Dot . . . . . . . . . . . . . . . . . . . . . .
 72
    65
 73
     2
 40
6.349999999999999
 49
0.0
 74
     0
 49
-6.349999999999999
 74
     0
  0
LTYPE
  5
53
330
5
100
AcDbSymbolTableRecord
100
AcDbLinetypeTableRecord
  2
DOT2
 70
     0
  3
Dot (.5x) .....................................
 72
    65
 73
     2
 40
3.174999999999999
 49
0.0
 74
     0
 49
-3.174999999999999
 74
     0
  0
LTYPE
  5
54
330
5
100
AcDbSymbolTableRecord
100
AcDbLinetypeTableRecord
  2
DOTX2
 70
     0
  3
Dot (2x) .  .  .  .  .  .  .  .  .  .  .  .  . 
 72
    65
 73
     2
 40
12.7
 49
0.0
 74
     0
 49
-12.7
 74
     0
  0
LTYPE
  5
55
330
5
100
AcDbSymbolTableRecord
100
AcDbLinetypeTableRecord
  2
FENCELINE1
 70
     0
  3
Fenceline circle ----0-----0----0-----0----0---
 72
    65
 73
     4
 40
36.83
 49
6.349999999999999
 74
     0
 49
-2.54
 74
     4
 75
   133
340
33
 46
2.54
 50
0.0
 44
-2.54
 45
0.0
 49
-2.54
 74
     0
 49
25.4
 74
     0
  0
LTYPE
  5
56
330
5
100
AcDbSymbolTableRecord
100
AcDbLinetypeTableRecord
  2
FENCELINE2
 70
     0
  3
Fenceline square ----[]-----[]----[]-----[]----
 72
    65
 73
     4
 40
36.83
 49
6.349999999999999
 74
     0
 49
-2.54
 74
     4
 75
   132
340
33
 46
2.54
 50
0.0
 44
-2.54
 45
0.0
 49
-2.54
 74
     0
 49
25.4
 74
     0
  0
LTYPE
  5
57
330
5
100
AcDbSymbolTableRecord
100
AcDbLinetypeTableRecord
  2
GAS_LINE
 70
     0
  3
Gas line ----GAS----GAS----GAS----GAS----GAS---
 72
    65
 73
     3
 40
24.13
 49
12.7
 74
     0
 49
-5.08
 74
     2
 75
     0
340
11
 46
2.54
 50
0.0
 44
-2.54
 45
-1.27
  9
GAS
 49
-6.349999999999999
 74
     0
  0
LTYPE
  5
58
330
5
100
AcDbSymbolTableRecord
100
AcDbLinetypeTableRecord
  2
HIDDEN
 70
     0
  3
Hidden __ __ __ __ __ __ __ __ __ __ __ __ __ _
 72
    65
 73
     2
 40
9.524999999999998
 49
6.349999999999999
 74
     0
 49
-3.174999999999999
 74
     0
  0
LTYPE
  5
59
330
5
100
AcDbSymbolTableRecord
100
AcDbLinetypeTableRecord
  2
HIDDEN2
 70
     0
  3
Hidden (.5x) _ _ _ _ _ _ _ _ _ _ _ _ _ _ _ _ _
 72
    65
 73
     2
 40
4.762499999999999
 49
3.174999999999999
 74
     0
 49
-1.587499999999999
 74
     0
  0
LTYPE
  5
5A
330
5
100
AcDbSymbolTableRecord
100
AcDbLinetypeTableRecord
  2
HIDDENX2
 70
     0
  3
Hidden (2x) ____ ____ ____ ____ ____ ____ ____
 72
    65
 73
     2
 40
19.05
 49
12.7
 74
     0
 49
-6.349999999999999
 74
     0
  0
LTYPE
  5
5B
330
5
100
AcDbSymbolTableRecord
100
AcDbLinetypeTableRecord
  2
HOT_WATER_SUPPLY
 70
     0
  3
Hot water supply ---- HW ---- HW ---- HW ----
 72
    65
 73
     3
 40
22.86
 49
12.7
 74
     0
 49
-5.08
 74
     2
 75
     0
340
11
 46
2.54
 50
0.0
 44
-2.54
 45
-1.27
  9
HW
 49
-5.08
 74
     0
  0
LTYPE
  5
5C
330
5
100
AcDbSymbolTableRecord
100
AcDbLinetypeTableRecord
  2
PHANTOM
 70
     0
  3
Phantom ______  __  __  ______  __  __  ______
 72
    65
 73
     6
 40
63.5
 49
31.75
 74
     0
 49
-6.349999999999999
 74
     0
 49
6.349999999999999
 74
     0
 49
-6.349999999999999
 74
     0
 49
6.349999999999999
 74
     0
 49
-6.349999999999999
 74
     0
  0
LTYPE
  5
5D
330
5
100
AcDbSymbolTableRecord
100
AcDbLinetypeTableRecord
  2
PHANTOM2
 70
     0
  3
Phantom (.5x) ___ _ _ ___ _ _ ___ _ _ ___ _ _
 72
    65
 73
     6
 40
31.75
 49
15.875
 74
     0
 49
-3.174999999999999
 74
     0
 49
3.174999999999999
 74
     0
 49
-3.174999999999999
 74
     0
 49
3.174999999999999
 74
     0
 49
-3.174999999999999
 74
     0
  0
LTYPE
  5
5E
330
5
100
AcDbSymbolTableRecord
100
AcDbLinetypeTableRecord
  2
PHANTOMX2
 70
     0
  3
Phantom (2x) ____________    ____    ____   _
 72
    65
 73
     6
 40
127.0
 49
63.5
 74
     0
 49
-12.7
 74
     0
 49
12.7
 74
     0
 49
-12.7
 74
     0
 49
12.7
 74
     0
 49
-12.7
 74
     0
  0
LTYPE
  5
5F
330
5
100
AcDbSymbolTableRecord
100
AcDbLinetypeTableRecord
  2
TRACKS
 70
     0
  3
Tracks -|-|-|-|-|-|-|-|-|-|-|-|-|-|-|-|-|-|-|-|
 72
    65
 73
     2
 40
7.62
 49
3.81
 74
     4
 75
   130
340
33
 46
6.349999999999999
 50
0.0
 44
0.0
 45
0.0
 49
3.81
 74
     0
  0
LTYPE
  5
60
330
5
100
AcDbSymbolTableRecord
100
AcDbLinetypeTableRecord
  2
ZIGZAG
 70
     0
  3
Zig zag /\/\/\/\/\/\/\/\/\/\/\/\/\/\/\/\/\/\/\/
 72
    65
 73
     4
 40
20.32254
 49
0.00254
 74
     0
 49
-5.08
 74
     4
 75
   131
340
33
 46
5.08
 50
0.0
 44
-5.08
 45
0.0
 49
-10.16
 74
     4
 75
   131
340
33
 46
5.08
 50
180.0
 44
5.08
 45
0.0
 49
-5.08
 74
     0
  0
ENDTAB
  0
TABLE
  2
LAYER
  5
2
102
{ACAD_XDICTIONARY
360
BDC
102
}
330
0
100
AcDbSymbolTable
 70
     9
  0
LAYER
  5
10
330
2
100
AcDbSymbolTableRecord
100
AcDbLayerTableRecord
  2
0
 70
     0
 62
     7
  6
Continuous
370
    -3
390
F
  0
LAYER
  5
C3
330
2
100
AcDbSymbolTableRecord
100
AcDbLayerTableRecord
  2
Defpoints
 70
     0
 62
     7
  6
Continuous
290
     0
370
    -3
390
F
  0
LAYER
  5
256
330
2
100
AcDbSymbolTableRecord
100
AcDbLayerTableRecord
  2
センター
 70
     0
 62
     7
  6
CENTER2
370
    18
390
F
  0
LAYER
  5
268
330
2
100
AcDbSymbolTableRecord
100
AcDbLayerTableRecord
  2
実形
 70
     0
 62
     7
  6
Continuous
370
    -3
390
F
  0
LAYER
  5
269
330
2
100
AcDbSymbolTableRecord
100
AcDbLayerTableRecord
  2
補助
 70
     0
 62
     7
  6
Continuous
370
    -3
390
F
  0
LAYER
  5
26A
330
2
100
AcDbSymbolTableRecord
100
AcDbLayerTableRecord
  2
寸法
 70
     0
 62
     7
  6
Continuous
370
    18
390
F
  0
LAYER
  5
26B
330
2
100
AcDbSymbolTableRecord
100
AcDbLayerTableRecord
  2
ハッチング
 70
     0
 62
     7
  6
Continuous
370
    18
390
F
  0
LAYER
  5
26D
330
2
100
AcDbSymbolTableRecord
100
AcDbLayerTableRecord
  2
文字
 70
     0
 62
     7
  6
Continuous
370
    -3
390
F
  0
LAYER
  5
942
330
2
100
AcDbSymbolTableRecord
100
AcDbLayerTableRecord
  2
Cen
 70
     0
 62
     7
  6
CENTER2
370
    15
390
F
  0
ENDTAB
  0
TABLE
  2
STYLE
  5
3
330
0
100
AcDbSymbolTable
 70
     3
  0
STYLE
  5
11
330
3
100
AcDbSymbolTableRecord
100
AcDbTextStyleTableRecord
  2
Standard
 70
     0
 40
0.0
 41
1.0
 50
0.0
 71
     0
 42
25.0
  3
txt.shx
  4
bigfont.shx
  0
STYLE
  5
33
330
3
100
AcDbSymbolTableRecord
100
AcDbTextStyleTableRecord
  2

 70
     1
 40
0.0
 41
1.0
 50
0.0
 71
     0
 42
2.5
  3
ltypeshp.shx
  4

  0
STYLE
  5
CF1
330
3
100
AcDbSymbolTableRecord
100
AcDbTextStyleTableRecord
  2
明朝
 70
     0
 40
0.0
 41
1.0
 50
0.0
 71
     0
 42
25.0
  3
MS Mincho.ttf
  4

1001
ACAD
1000
MS Mincho
1071
    32785
  0
ENDTAB
  0
TABLE
  2
VIEW
  5
6
330
0
100
AcDbSymbolTable
 70
     0
  0
ENDTAB
  0
TABLE
  2
UCS
  5
7
330
0
100
AcDbSymbolTable
 70
     0
  0
ENDTAB
  0
TABLE
  2
APPID
  5
9
330
0
100
AcDbSymbolTable
 70
     1
  0
APPID
  5
12
330
9
100
AcDbSymbolTableRecord
100
AcDbRegAppTableRecord
  2
ACAD
 70
     0
  0
ENDTAB
  0
TABLE
  2
DIMSTYLE
  5
A
330
0
100
AcDbSymbolTable
 70
     1
100
AcDbDimStyleTable
 71
     1
340
27
  0
DIMSTYLE
105
27
102
{ACAD_REACTORS
330
368
330
399
330
44B
330
458
330
4A3
330
569
330
57F
330
35B
330
3CE
330
43D
330
3E9
330
3DC
330
3F6
330
4F8
330
505
330
80A
330
824
330
83A
330
850
330
85D
102
}
330
A
100
AcDbSymbolTableRecord
100
AcDbDimStyleTableRecord
  2
ISO-25
 70
     0
 41
35.0
 42
65.0
 43
3.75
 44
0.0
 73
     0
 74
     0
 77
     1
 78
     8
140
25.0
141
2.5
143
0.03937007874016
147
6.25
171
     3
172
     1
271
     2
272
     2
274
     3
283
     0
284
     8
340
11
341
DA
342
D0
371
    15
372
    15
  0
ENDTAB
  0
TABLE
  2
BLOCK_RECORD
  5
1
330
0
100
AcDbSymbolTable
 70
    24
  0
BLOCK_RECORD
  5
1F
102
{ACAD_XDICTIONARY
360
D10
102
}
330
1
100
AcDbSymbolTableRecord
100
AcDbBlockTableRecord
  2
*Model_Space
340
22
  0
BLOCK_RECORD
  5
1B
330
1
100
AcDbSymbolTableRecord
100
AcDbBlockTableRecord
  2
*Paper_Space
340
1E
  0
BLOCK_RECORD
  5
23
330
1
100
AcDbSymbolTableRecord
100
AcDbBlockTableRecord
  2
*Paper_Space0
340
26
  0
BLOCK_RECORD
  5
D0
330
1
100
AcDbSymbolTableRecord
100
AcDbBlockTableRecord
  2
_DotSmall
340
0
102
{BLKREFS
331
B0B
331
B0C
331
B14
331
B15
331
B1D
331
B1E
331
B26
331
B27
331
B2F
331
B30
331
B38
331
B39
331
B5B
331
B5C
331
B7E
331
B7F
331
B87
331
B88
331
B8F
331
B90
331
B99
331
B9A
331
BAB
331
BAC
331
BBC
331
BBD
331
BC4
331
BC5
331
BD6
331
BD7
331
C61
331
C62
331
C6A
331
C6B
331
CA1
331
CA2
331
CAA
331
CAB
331
D29
331
D2A
102
}
  0
BLOCK_RECORD
  5
D4
330
1
100
AcDbSymbolTableRecord
100
AcDbBlockTableRecord
  2
_Origin2
340
0
  0
BLOCK_RECORD
  5
DA
330
1
100
AcDbSymbolTableRecord
100
AcDbBlockTableRecord
  2
_Open30
340
0
  0
BLOCK_RECORD
  5
35C
330
1
100
AcDbSymbolTableRecord
100
AcDbBlockTableRecord
  2
*D4
340
0
  0
BLOCK_RECORD
  5
369
330
1
100
AcDbSymbolTableRecord
100
AcDbBlockTableRecord
  2
*D5
340
0
  0
BLOCK_RECORD
  5
39A
330
1
100
AcDbSymbolTableRecord
100
AcDbBlockTableRecord
  2
*D6
340
0
  0
BLOCK_RECORD
  5
3CF
330
1
100
AcDbSymbolTableRecord
100
AcDbBlockTableRecord
  2
*D7
340
0
  0
BLOCK_RECORD
  5
3DD
330
1
100
AcDbSymbolTableRecord
100
AcDbBlockTableRecord
  2
*D8
340
0
  0
BLOCK_RECORD
  5
3EA
330
1
100
AcDbSymbolTableRecord
100
AcDbBlockTableRecord
  2
*D9
340
0
  0
BLOCK_RECORD
  5
3F7
330
1
100
AcDbSymbolTableRecord
100
AcDbBlockTableRecord
  2
*D10
340
0
  0
BLOCK_RECORD
  5
43E
330
1
100
AcDbSymbolTableRecord
100
AcDbBlockTableRecord
  2
*D11
340
0
  0
BLOCK_RECORD
  5
44C
330
1
100
AcDbSymbolTableRecord
100
AcDbBlockTableRecord
  2
*D12
340
0
  0
BLOCK_RECORD
  5
459
330
1
100
AcDbSymbolTableRecord
100
AcDbBlockTableRecord
  2
*D13
340
0
  0
BLOCK_RECORD
  5
4A4
330
1
100
AcDbSymbolTableRecord
100
AcDbBlockTableRecord
  2
*D14
340
0
  0
BLOCK_RECORD
  5
4F9
330
1
100
AcDbSymbolTableRecord
100
AcDbBlockTableRecord
  2
*D15
340
0
  0
BLOCK_RECORD
  5
506
330
1
100
AcDbSymbolTableRecord
100
AcDbBlockTableRecord
  2
*D16
340
0
  0
BLOCK_RECORD
  5
56A
330
1
100
AcDbSymbolTableRecord
100
AcDbBlockTableRecord
  2
*D17
340
0
  0
BLOCK_RECORD
  5
580
330
1
100
AcDbSymbolTableRecord
100
AcDbBlockTableRecord
  2
*D18
340
0
  0
BLOCK_RECORD
  5
80B
330
1
100
AcDbSymbolTableRecord
100
AcDbBlockTableRecord
  2
*D19
340
0
  0
BLOCK_RECORD
  5
825
330
1
100
AcDbSymbolTableRecord
100
AcDbBlockTableRecord
  2
*D20
340
0
  0
BLOCK_RECORD
  5
83B
330
1
100
AcDbSymbolTableRecord
100
AcDbBlockTableRecord
  2
*D21
340
0
  0
BLOCK_RECORD
  5
851
330
1
100
AcDbSymbolTableRecord
100
AcDbBlockTableRecord
  2
*D22
340
0
  0
BLOCK_RECORD
  5
85E
330
1
100
AcDbSymbolTableRecord
100
AcDbBlockTableRecord
  2
*D23
340
0
  0
ENDTAB
  0
ENDSEC
  0
SECTION
  2
BLOCKS
  0
BLOCK
  5
20
330
1F
100
AcDbEntity
  8
0
100
AcDbBlockBegin
  2
*Model_Space
 70
     0
 10
0.0
 20
0.0
 30
0.0
  3
*Model_Space
  1

  0
ENDBLK
  5
21
330
1F
100
AcDbEntity
  8
0
100
AcDbBlockEnd
  0
BLOCK
  5
1C
330
1B
100
AcDbEntity
 67
     1
  8
0
100
AcDbBlockBegin
  2
*Paper_Space
 70
     0
 10
0.0
 20
0.0
 30
0.0
  3
*Paper_Space
  1

  0
ENDBLK
  5
1D
330
1B
100
AcDbEntity
 67
     1
  8
0
100
AcDbBlockEnd
  0
BLOCK
  5
24
330
23
100
AcDbEntity
  8
0
100
AcDbBlockBegin
  2
*Paper_Space0
 70
     0
 10
0.0
 20
0.0
 30
0.0
  3
*Paper_Space0
  1

  0
ENDBLK
  5
25
330
23
100
AcDbEntity
  8
0
100
AcDbBlockEnd
  0
BLOCK
  5
D2
330
D0
100
AcDbEntity
  8
0
100
AcDbBlockBegin
  2
_DotSmall
 70
     0
 10
0.0
 20
0.0
 30
0.0
  3
_DotSmall
  1

  0
LWPOLYLINE
  5
D1
330
D0
100
AcDbEntity
  8
0
 62
     0
100
AcDbPolyline
 90
        2
 70
     1
 43
0.5
 10
-0.0625
 20
0.0
 42
1.0
 10
0.0625
 20
0.0
 42
1.0
  0
ENDBLK
  5
D3
330
D0
100
AcDbEntity
  8
0
100
AcDbBlockEnd
  0
BLOCK
  5
D8
330
D4
100
AcDbEntity
  8
0
100
AcDbBlockBegin
  2
_Origin2
 70
     0
 10
0.0
 20
0.0
 30
0.0
  3
_Origin2
  1

  0
CIRCLE
  5
D5
330
D4
100
AcDbEntity
  8
0
 62
     0
370
    -2
100
AcDbCircle
 10
0.0
 20
0.0
 30
0.0
 40
0.5
  0
CIRCLE
  5
D6
330
D4
100
AcDbEntity
  8
0
 62
     0
370
    -2
100
AcDbCircle
 10
0.0
 20
0.0
 30
0.0
 40
0.25
  0
LINE
  5
D7
330
D4
100
AcDbEntity
  8
0
 62
     0
370
    -2
100
AcDbLine
 10
-0.5
 20
0.0
 30
0.0
 11
-1.0
 21
0.0
 31
0.0
  0
ENDBLK
  5
D9
330
D4
100
AcDbEntity
  8
0
100
AcDbBlockEnd
  0
BLOCK
  5
DE
330
DA
100
AcDbEntity
  8
0
100
AcDbBlockBegin
  2
_Open30
 70
     0
 10
0.0
 20
0.0
 30
0.0
  3
_Open30
  1

  0
LINE
  5
DB
330
DA
100
AcDbEntity
  8
0
 62
     0
370
    -2
100
AcDbLine
 10
-1.0
 20
0.26794919
 30
0.0
 11
0.0
 21
0.0
 31
0.0
  0
LINE
  5
DC
330
DA
100
AcDbEntity
  8
0
 62
     0
370
    -2
100
AcDbLine
 10
0.0
 20
0.0
 30
0.0
 11
-1.0
 21
-0.26794919
 31
0.0
  0
LINE
  5
DD
330
DA
100
AcDbEntity
  8
0
 62
     0
370
    -2
100
AcDbLine
 10
0.0
 20
0.0
 30
0.0
 11
-1.0
 21
0.0
 31
0.0
  0
ENDBLK
  5
DF
330
DA
100
AcDbEntity
  8
0
100
AcDbBlockEnd
  0
BLOCK
  5
366
330
35C
100
AcDbEntity
  8
0
100
AcDbBlockBegin
  2
*D4
 70
     1
 10
0.0
 20
0.0
 30
0.0
  3
*D4
  1

  0
LINE
  5
BD3
330
35C
100
AcDbEntity
  8
寸法
 62
     0
370
    15
100
AcDbLine
 10
756.9079153054099
 20
1650.521773967338
 30
0.0
 11
756.9079153054099
 21
1798.824892130746
 31
0.0
  0
LINE
  5
BD4
330
35C
100
AcDbEntity
  8
寸法
 62
     0
370
    15
100
AcDbLine
 10
606.9079153054099
 20
1560.021773967338
 30
0.0
 11
606.9079153054099
 21
1798.824892130746
 31
0.0
  0
LINE
  5
BD5
330
35C
100
AcDbEntity
  8
寸法
 62
     0
370
    18
100
AcDbLine
 10
756.9079153054099
 20
1798.824892130746
 30
0.0
 11
606.9079153054099
 21
1798.824892130746
 31
0.0
  0
INSERT
  5
BD6
330
35C
100
AcDbEntity
  8
寸法
 62
     0
370
    18
100
AcDbBlockReference
  2
_DotSmall
 10
756.9079153054099
 20
1798.824892130746
 30
0.0
 41
25.0
 42
25.0
 43
25.0
  0
INSERT
  5
BD7
330
35C
100
AcDbEntity
  8
寸法
 62
     0
370
    18
100
AcDbBlockReference
  2
_DotSmall
 10
606.9079153054099
 20
1798.824892130746
 30
0.0
 41
25.0
 42
25.0
 43
25.0
 50
180.0
  0
MTEXT
  5
BD8
330
35C
100
AcDbEntity
  8
寸法
 62
     0
100
AcDbMText
 10
681.9079153054099
 20
1817.574892130746
 30
0.0
 40
25.0
 41
0.0
 71
     5
 72
     1
  1
150
 73
     1
 44
1.0
1001
ACAD
1000
MTEXTBEGIN
1070
    73
1070
     1
1070
    44
1040
1.0
1070
    74
1070
     0
1000
MTEXTEND
  0
POINT
  5
BD9
330
35C
100
AcDbEntity
  8
Defpoints
 62
     0
100
AcDbPoint
 10
756.9079153054099
 20
1585.521773967338
 30
0.0
  0
POINT
  5
BDA
330
35C
100
AcDbEntity
  8
Defpoints
 62
     0
100
AcDbPoint
 10
606.9079153054099
 20
1495.021773967338
 30
0.0
  0
POINT
  5
BDB
330
35C
100
AcDbEntity
  8
Defpoints
 62
     0
100
AcDbPoint
 10
606.9079153054099
 20
1798.824892130746
 30
0.0
  0
ENDBLK
  5
367
330
35C
100
AcDbEntity
  8
0
100
AcDbBlockEnd
  0
BLOCK
  5
373
330
369
100
AcDbEntity
  8
0
100
AcDbBlockBegin
  2
*D5
 70
     1
 10
0.0
 20
0.0
 30
0.0
  3
*D5
  1

  0
LINE
  5
D26
330
369
100
AcDbEntity
  8
寸法
 62
     0
370
    15
100
AcDbLine
 10
912.40791530541
 20
1495.021773967338
 30
0.0
 11
1071.907915305409
 21
1495.021773967338
 31
0.0
  0
LINE
  5
D27
330
369
100
AcDbEntity
  8
寸法
 62
     0
370
    15
100
AcDbLine
 10
1066.762120198949
 20
1705.021773967338
 30
0.0
 11
1071.90791530541
 21
1705.021773967338
 31
0.0
  0
LINE
  5
D28
330
369
100
AcDbEntity
  8
寸法
 62
     0
370
    18
100
AcDbLine
 10
1071.907915305409
 20
1495.021773967338
 30
0.0
 11
1071.90791530541
 21
1705.021773967338
 31
0.0
  0
INSERT
  5
D29
330
369
100
AcDbEntity
  8
寸法
 62
     0
370
    18
100
AcDbBlockReference
  2
_DotSmall
 10
1071.907915305409
 20
1495.021773967338
 30
0.0
 41
25.0
 42
25.0
 43
25.0
 50
270.0
  0
INSERT
  5
D2A
330
369
100
AcDbEntity
  8
寸法
 62
     0
370
    18
100
AcDbBlockReference
  2
_DotSmall
 10
1071.90791530541
 20
1705.021773967338
 30
0.0
 41
25.0
 42
25.0
 43
25.0
 50
90.0
  0
MTEXT
  5
D2B
330
369
100
AcDbEntity
  8
寸法
 62
     0
100
AcDbMText
 10
1053.157915305409
 20
1600.021773967338
 30
0.0
 40
25.0
 41
0.0
 71
     5
 72
     1
  1
205
 11
0.0000000000000001
 21
1.0
 31
0.0
 73
     1
 44
1.0
1001
ACAD
1000
MTEXTBEGIN
1070
    73
1070
     1
1070
    44
1040
1.0
1070
    74
1070
     0
1000
MTEXTEND
  0
POINT
  5
D2C
330
369
100
AcDbEntity
  8
Defpoints
 62
     0
100
AcDbPoint
 10
847.40791530541
 20
1495.021773967338
 30
0.0
  0
POINT
  5
D2D
330
369
100
AcDbEntity
  8
Defpoints
 62
     0
100
AcDbPoint
 10
1001.762120198948
 20
1705.021773967338
 30
0.0
  0
POINT
  5
D2E
330
369
100
AcDbEntity
  8
Defpoints
 62
     0
100
AcDbPoint
 10
1071.90791530541
 20
1705.021773967338
 30
0.0
  0
ENDBLK
  5
374
330
369
100
AcDbEntity
  8
0
100
AcDbBlockEnd
  0
BLOCK
  5
3A4
330
39A
100
AcDbEntity
  8
0
100
AcDbBlockBegin
  2
*D6
 70
     1
 10
0.0
 20
0.0
 30
0.0
  3
*D6
  1

  0
LINE
  5
BC1
330
39A
100
AcDbEntity
  8
寸法
 62
     0
370
    15
100
AcDbLine
 10
1818.402202165556
 20
1522.521773967338
 30
0.0
 11
1818.402202165556
 21
1595.328311358754
 31
0.0
  0
LINE
  5
BC2
330
39A
100
AcDbEntity
  8
寸法
 62
     0
370
    15
100
AcDbLine
 10
1868.402202165557
 20
1597.521773967338
 30
0.0
 11
1868.402202165557
 21
1595.328311358754
 31
0.0
  0
LINE
  5
BC3
330
39A
100
AcDbEntity
  8
寸法
 62
     0
370
    18
100
AcDbLine
 10
1818.402202165556
 20
1595.328311358754
 30
0.0
 11
1868.402202165557
 21
1595.328311358754
 31
0.0
  0
INSERT
  5
BC4
330
39A
100
AcDbEntity
  8
寸法
 62
     0
370
    18
100
AcDbBlockReference
  2
_DotSmall
 10
1818.402202165556
 20
1595.328311358754
 30
0.0
 41
25.0
 42
25.0
 43
25.0
 50
180.0
  0
INSERT
  5
BC5
330
39A
100
AcDbEntity
  8
寸法
 62
     0
370
    18
100
AcDbBlockReference
  2
_DotSmall
 10
1868.402202165557
 20
1595.328311358754
 30
0.0
 41
25.0
 42
25.0
 43
25.0
  0
MTEXT
  5
BC6
330
39A
100
AcDbEntity
  8
寸法
 62
     0
100
AcDbMText
 10
1843.402202165556
 20
1614.078311358753
 30
0.0
 40
25.0
 41
0.0
 71
     5
 72
     1
  1
50
 73
     1
 44
1.0
1001
ACAD
1000
MTEXTBEGIN
1070
    73
1070
     1
1070
    44
1040
1.0
1070
    74
1070
     0
1000
MTEXTEND
  0
POINT
  5
BC7
330
39A
100
AcDbEntity
  8
Defpoints
 62
     0
100
AcDbPoint
 10
1818.402202165556
 20
1457.521773967338
 30
0.0
  0
POINT
  5
BC8
330
39A
100
AcDbEntity
  8
Defpoints
 62
     0
100
AcDbPoint
 10
1868.402202165557
 20
1532.521773967338
 30
0.0
  0
POINT
  5
BC9
330
39A
100
AcDbEntity
  8
Defpoints
 62
     0
100
AcDbPoint
 10
1868.402202165557
 20
1595.328311358754
 30
0.0
  0
ENDBLK
  5
3A5
330
39A
100
AcDbEntity
  8
0
100
AcDbBlockEnd
  0
BLOCK
  5
3DA
330
3CF
100
AcDbEntity
  8
0
100
AcDbBlockBegin
  2
*D7
 70
     1
 10
0.0
 20
0.0
 30
0.0
  3
*D7
  1

  0
LINE
  5
BB9
330
3CF
100
AcDbEntity
  8
寸法
 62
     0
370
    15
100
AcDbLine
 10
526.9079153054099
 20
1720.021773967338
 30
0.0
 11
448.7326005815366
 21
1720.021773967338
 31
0.0
  0
LINE
  5
BBA
330
3CF
100
AcDbEntity
  8
寸法
 62
     0
370
    15
100
AcDbLine
 10
526.9079153054099
 20
1705.021773967338
 30
0.0
 11
448.7326005815366
 21
1705.021773967338
 31
0.0
  0
LINE
  5
BBB
330
3CF
100
AcDbEntity
  8
寸法
 62
     0
370
    18
100
AcDbLine
 10
448.7326005815366
 20
1720.021773967338
 30
0.0
 11
448.7326005815366
 21
1705.021773967338
 31
0.0
  0
INSERT
  5
BBC
330
3CF
100
AcDbEntity
  8
寸法
 62
     0
370
    18
100
AcDbBlockReference
  2
_DotSmall
 10
448.7326005815366
 20
1720.021773967338
 30
0.0
 41
25.0
 42
25.0
 43
25.0
 50
90.0
  0
INSERT
  5
BBD
330
3CF
100
AcDbEntity
  8
寸法
 62
     0
370
    18
100
AcDbBlockReference
  2
_DotSmall
 10
448.7326005815366
 20
1705.021773967338
 30
0.0
 41
25.0
 42
25.0
 43
25.0
 50
270.0
  0
POINT
  5
BBE
330
3CF
100
AcDbEntity
  8
Defpoints
 62
     0
100
AcDbPoint
 10
591.9079153054099
 20
1720.021773967338
 30
0.0
  0
POINT
  5
BBF
330
3CF
100
AcDbEntity
  8
Defpoints
 62
     0
100
AcDbPoint
 10
591.9079153054099
 20
1705.021773967338
 30
0.0
  0
POINT
  5
BC0
330
3CF
100
AcDbEntity
  8
Defpoints
 62
     0
100
AcDbPoint
 10
448.7326005815366
 20
1705.021773967338
 30
0.0
  0
ENDBLK
  5
3DB
330
3CF
100
AcDbEntity
  8
0
100
AcDbBlockEnd
  0
BLOCK
  5
3E7
330
3DD
100
AcDbEntity
  8
0
100
AcDbBlockBegin
  2
*D8
 70
     1
 10
0.0
 20
0.0
 30
0.0
  3
*D8
  1

  0
LINE
  5
C9E
330
3DD
100
AcDbEntity
  8
寸法
 62
     0
370
    15
100
AcDbLine
 10
526.9079153054099
 20
1705.021773967338
 30
0.0
 11
448.7326005815367
 21
1705.021773967338
 31
0.0
  0
LINE
  5
C9F
330
3DD
100
AcDbEntity
  8
寸法
 62
     0
370
    15
100
AcDbLine
 10
526.9079153054099
 20
1285.021773967338
 30
0.0
 11
448.7326005815366
 21
1285.021773967338
 31
0.0
  0
LINE
  5
CA0
330
3DD
100
AcDbEntity
  8
寸法
 62
     0
370
    18
100
AcDbLine
 10
448.7326005815367
 20
1705.021773967338
 30
0.0
 11
448.7326005815366
 21
1285.021773967338
 31
0.0
  0
INSERT
  5
CA1
330
3DD
100
AcDbEntity
  8
寸法
 62
     0
370
    18
100
AcDbBlockReference
  2
_DotSmall
 10
448.7326005815367
 20
1705.021773967338
 30
0.0
 41
25.0
 42
25.0
 43
25.0
 50
90.0
  0
INSERT
  5
CA2
330
3DD
100
AcDbEntity
  8
寸法
 62
     0
370
    18
100
AcDbBlockReference
  2
_DotSmall
 10
448.7326005815366
 20
1285.021773967338
 30
0.0
 41
25.0
 42
25.0
 43
25.0
 50
270.0
  0
MTEXT
  5
CA3
330
3DD
100
AcDbEntity
  8
寸法
 62
     0
100
AcDbMText
 10
429.9826005815364
 20
1495.021773967338
 30
0.0
 40
25.0
 41
0.0
 71
     5
 72
     1
  1
410
 11
0.0000000000000001
 21
1.0
 31
0.0
 73
     1
 44
1.0
1001
ACAD
1000
MTEXTBEGIN
1070
    73
1070
     1
1070
    44
1040
1.0
1070
    74
1070
     0
1000
MTEXTEND
  0
POINT
  5
CA4
330
3DD
100
AcDbEntity
  8
Defpoints
 62
     0
100
AcDbPoint
 10
591.9079153054099
 20
1705.021773967338
 30
0.0
  0
POINT
  5
CA5
330
3DD
100
AcDbEntity
  8
Defpoints
 62
     0
100
AcDbPoint
 10
591.9079153054099
 20
1285.021773967338
 30
0.0
  0
POINT
  5
CA6
330
3DD
100
AcDbEntity
  8
Defpoints
 62
     0
100
AcDbPoint
 10
448.7326005815366
 20
1285.021773967338
 30
0.0
  0
ENDBLK
  5
3E8
330
3DD
100
AcDbEntity
  8
0
100
AcDbBlockEnd
  0
BLOCK
  5
3F4
330
3EA
100
AcDbEntity
  8
0
100
AcDbBlockBegin
  2
*D9
 70
     1
 10
0.0
 20
0.0
 30
0.0
  3
*D9
  1

  0
LINE
  5
BA7
330
3EA
100
AcDbEntity
  8
寸法
 62
     0
370
    15
100
AcDbLine
 10
526.9079153054099
 20
1285.021773967338
 30
0.0
 11
448.7326005815366
 21
1285.021773967338
 31
0.0
  0
LINE
  5
BA8
330
3EA
100
AcDbEntity
  8
寸法
 62
     0
370
    15
100
AcDbLine
 10
526.9079153054099
 20
1270.021773967338
 30
0.0
 11
448.7326005815366
 21
1270.021773967338
 31
0.0
  0
LINE
  5
BA9
330
3EA
100
AcDbEntity
  8
寸法
 62
     0
370
    18
100
AcDbLine
 10
448.7326005815366
 20
1285.021773967338
 30
0.0
 11
448.7326005815366
 21
1270.021773967338
 31
0.0
  0
MTEXT
  5
BAA
330
3EA
100
AcDbEntity
  8
寸法
 62
     0
370
    18
100
AcDbMText
 10
434.4164948769511
 20
1227.337533259112
 30
0.0
 40
25.0
 41
0.0
 71
     5
 72
     1
  1
15
 11
0.0000000000000001
 21
1.0
 31
0.0
 73
     1
 44
1.0
1001
ACAD
1000
MTEXTBEGIN
1070
    73
1070
     1
1070
    44
1040
1.0
1070
    74
1070
     0
1000
MTEXTEND
  0
INSERT
  5
BAB
330
3EA
100
AcDbEntity
  8
寸法
 62
     0
370
    18
100
AcDbBlockReference
  2
_DotSmall
 10
448.7326005815366
 20
1285.021773967338
 30
0.0
 41
25.0
 42
25.0
 43
25.0
 50
90.0
  0
INSERT
  5
BAC
330
3EA
100
AcDbEntity
  8
寸法
 62
     0
370
    18
100
AcDbBlockReference
  2
_DotSmall
 10
448.7326005815366
 20
1270.021773967338
 30
0.0
 41
25.0
 42
25.0
 43
25.0
 50
270.0
  0
POINT
  5
BAD
330
3EA
100
AcDbEntity
  8
Defpoints
 62
     0
100
AcDbPoint
 10
591.9079153054099
 20
1285.021773967338
 30
0.0
  0
POINT
  5
BAE
330
3EA
100
AcDbEntity
  8
Defpoints
 62
     0
100
AcDbPoint
 10
591.9079153054099
 20
1270.021773967338
 30
0.0
  0
POINT
  5
BAF
330
3EA
100
AcDbEntity
  8
Defpoints
 62
     0
100
AcDbPoint
 10
448.7326005815366
 20
1270.021773967338
 30
0.0
  0
ENDBLK
  5
3F5
330
3EA
100
AcDbEntity
  8
0
100
AcDbBlockEnd
  0
BLOCK
  5
401
330
3F7
100
AcDbEntity
  8
0
100
AcDbBlockBegin
  2
*D10
 70
     1
 10
0.0
 20
0.0
 30
0.0
  3
*D10
  1

  0
LINE
  5
CA7
330
3F7
100
AcDbEntity
  8
寸法
 62
     0
370
    15
100
AcDbLine
 10
526.9079153054099
 20
1720.021773967338
 30
0.0
 11
379.8927022568524
 21
1720.021773967338
 31
0.0
  0
LINE
  5
CA8
330
3F7
100
AcDbEntity
  8
寸法
 62
     0
370
    15
100
AcDbLine
 10
526.9079153054099
 20
1270.021773967338
 30
0.0
 11
379.8927022568523
 21
1270.021773967338
 31
0.0
  0
LINE
  5
CA9
330
3F7
100
AcDbEntity
  8
寸法
 62
     0
370
    18
100
AcDbLine
 10
379.8927022568524
 20
1720.021773967338
 30
0.0
 11
379.8927022568523
 21
1270.021773967338
 31
0.0
  0
INSERT
  5
CAA
330
3F7
100
AcDbEntity
  8
寸法
 62
     0
370
    18
100
AcDbBlockReference
  2
_DotSmall
 10
379.8927022568524
 20
1720.021773967338
 30
0.0
 41
25.0
 42
25.0
 43
25.0
 50
90.0
  0
INSERT
  5
CAB
330
3F7
100
AcDbEntity
  8
寸法
 62
     0
370
    18
100
AcDbBlockReference
  2
_DotSmall
 10
379.8927022568523
 20
1270.021773967338
 30
0.0
 41
25.0
 42
25.0
 43
25.0
 50
270.0
  0
MTEXT
  5
CAC
330
3F7
100
AcDbEntity
  8
寸法
 62
     0
100
AcDbMText
 10
361.1427022568522
 20
1495.021773967338
 30
0.0
 40
25.0
 41
0.0
 71
     5
 72
     1
  1
440
 11
0.0000000000000001
 21
1.0
 31
0.0
 73
     1
 44
1.0
1001
ACAD
1000
MTEXTBEGIN
1070
    73
1070
     1
1070
    44
1040
1.0
1070
    74
1070
     0
1000
MTEXTEND
  0
POINT
  5
CAD
330
3F7
100
AcDbEntity
  8
Defpoints
 62
     0
100
AcDbPoint
 10
591.9079153054099
 20
1720.021773967338
 30
0.0
  0
POINT
  5
CAE
330
3F7
100
AcDbEntity
  8
Defpoints
 62
     0
100
AcDbPoint
 10
591.9079153054099
 20
1270.021773967338
 30
0.0
  0
POINT
  5
CAF
330
3F7
100
AcDbEntity
  8
Defpoints
 62
     0
100
AcDbPoint
 10
379.8927022568523
 20
1270.021773967338
 30
0.0
  0
ENDBLK
  5
402
330
3F7
100
AcDbEntity
  8
0
100
AcDbBlockEnd
  0
BLOCK
  5
449
330
43E
100
AcDbEntity
  8
0
100
AcDbBlockBegin
  2
*D11
 70
     1
 10
0.0
 20
0.0
 30
0.0
  3
*D11
  1

  0
LINE
  5
B95
330
43E
100
AcDbEntity
  8
寸法
 62
     0
370
    15
100
AcDbLine
 10
591.9079153054099
 20
1205.021773967338
 30
0.0
 11
591.9079153054099
 21
1122.089656197283
 31
0.0
  0
LINE
  5
B96
330
43E
100
AcDbEntity
  8
寸法
 62
     0
370
    15
100
AcDbLine
 10
606.9079153054099
 20
1205.021773967338
 30
0.0
 11
606.9079153054099
 21
1122.089656197283
 31
0.0
  0
LINE
  5
B97
330
43E
100
AcDbEntity
  8
寸法
 62
     0
370
    18
100
AcDbLine
 10
591.9079153054099
 20
1122.089656197283
 30
0.0
 11
606.9079153054099
 21
1122.089656197283
 31
0.0
  0
LINE
  5
B98
330
43E
100
AcDbEntity
  8
寸法
 62
     0
370
    18
100
AcDbLine
 10
606.9079153054099
 20
1122.089656197283
 30
0.0
 11
672.6579153054099
 21
1122.089656197283
 31
0.0
  0
INSERT
  5
B99
330
43E
100
AcDbEntity
  8
寸法
 62
     0
370
    18
100
AcDbBlockReference
  2
_DotSmall
 10
591.9079153054099
 20
1122.089656197283
 30
0.0
 41
25.0
 42
25.0
 43
25.0
 50
180.0
  0
INSERT
  5
B9A
330
43E
100
AcDbEntity
  8
寸法
 62
     0
370
    18
100
AcDbBlockReference
  2
_DotSmall
 10
606.9079153054099
 20
1122.089656197283
 30
0.0
 41
25.0
 42
25.0
 43
25.0
  0
POINT
  5
B9B
330
43E
100
AcDbEntity
  8
Defpoints
 62
     0
100
AcDbPoint
 10
591.9079153054099
 20
1270.021773967338
 30
0.0
  0
POINT
  5
B9C
330
43E
100
AcDbEntity
  8
Defpoints
 62
     0
100
AcDbPoint
 10
606.9079153054099
 20
1270.021773967338
 30
0.0
  0
POINT
  5
B9D
330
43E
100
AcDbEntity
  8
Defpoints
 62
     0
100
AcDbPoint
 10
606.9079153054099
 20
1122.089656197283
 30
0.0
  0
ENDBLK
  5
44A
330
43E
100
AcDbEntity
  8
0
100
AcDbBlockEnd
  0
BLOCK
  5
456
330
44C
100
AcDbEntity
  8
0
100
AcDbBlockBegin
  2
*D12
 70
     1
 10
0.0
 20
0.0
 30
0.0
  3
*D12
  1

  0
LINE
  5
B8C
330
44C
100
AcDbEntity
  8
寸法
 62
     0
370
    15
100
AcDbLine
 10
606.9079153054099
 20
1205.021773967338
 30
0.0
 11
606.9079153054099
 21
1122.089656197283
 31
0.0
  0
LINE
  5
B8D
330
44C
100
AcDbEntity
  8
寸法
 62
     0
370
    15
100
AcDbLine
 10
1536.90791530541
 20
1205.021773967338
 30
0.0
 11
1536.90791530541
 21
1122.089656197283
 31
0.0
  0
LINE
  5
B8E
330
44C
100
AcDbEntity
  8
寸法
 62
     0
370
    18
100
AcDbLine
 10
606.9079153054099
 20
1122.089656197283
 30
0.0
 11
1536.90791530541
 21
1122.089656197283
 31
0.0
  0
INSERT
  5
B8F
330
44C
100
AcDbEntity
  8
寸法
 62
     0
370
    18
100
AcDbBlockReference
  2
_DotSmall
 10
606.9079153054099
 20
1122.089656197283
 30
0.0
 41
25.0
 42
25.0
 43
25.0
 50
180.0
  0
INSERT
  5
B90
330
44C
100
AcDbEntity
  8
寸法
 62
     0
370
    18
100
AcDbBlockReference
  2
_DotSmall
 10
1536.90791530541
 20
1122.089656197283
 30
0.0
 41
25.0
 42
25.0
 43
25.0
  0
MTEXT
  5
B91
330
44C
100
AcDbEntity
  8
寸法
 62
     0
100
AcDbMText
 10
1071.90791530541
 20
1140.839656197283
 30
0.0
 40
25.0
 41
0.0
 71
     5
 72
     1
  1
930
 73
     1
 44
1.0
1001
ACAD
1000
MTEXTBEGIN
1070
    73
1070
     1
1070
    44
1040
1.0
1070
    74
1070
     0
1000
MTEXTEND
  0
POINT
  5
B92
330
44C
100
AcDbEntity
  8
Defpoints
 62
     0
100
AcDbPoint
 10
606.9079153054099
 20
1270.021773967338
 30
0.0
  0
POINT
  5
B93
330
44C
100
AcDbEntity
  8
Defpoints
 62
     0
100
AcDbPoint
 10
1536.90791530541
 20
1270.021773967338
 30
0.0
  0
POINT
  5
B94
330
44C
100
AcDbEntity
  8
Defpoints
 62
     0
100
AcDbPoint
 10
1536.90791530541
 20
1122.089656197283
 30
0.0
  0
ENDBLK
  5
457
330
44C
100
AcDbEntity
  8
0
100
AcDbBlockEnd
  0
BLOCK
  5
465
330
459
100
AcDbEntity
  8
0
100
AcDbBlockBegin
  2
*D13
 70
     1
 10
0.0
 20
0.0
 30
0.0
  3
*D13
  1

  0
LINE
  5
B84
330
459
100
AcDbEntity
  8
寸法
 62
     0
370
    15
100
AcDbLine
 10
1536.90791530541
 20
1205.021773967338
 30
0.0
 11
1536.90791530541
 21
1122.089656197283
 31
0.0
  0
LINE
  5
B85
330
459
100
AcDbEntity
  8
寸法
 62
     0
370
    15
100
AcDbLine
 10
1551.90791530541
 20
1205.021773967338
 30
0.0
 11
1551.90791530541
 21
1122.089656197283
 31
0.0
  0
LINE
  5
B86
330
459
100
AcDbEntity
  8
寸法
 62
     0
370
    18
100
AcDbLine
 10
1536.90791530541
 20
1122.089656197283
 30
0.0
 11
1551.90791530541
 21
1122.089656197283
 31
0.0
  0
INSERT
  5
B87
330
459
100
AcDbEntity
  8
寸法
 62
     0
370
    18
100
AcDbBlockReference
  2
_DotSmall
 10
1536.90791530541
 20
1122.089656197283
 30
0.0
 41
25.0
 42
25.0
 43
25.0
 50
180.0
  0
INSERT
  5
B88
330
459
100
AcDbEntity
  8
寸法
 62
     0
370
    18
100
AcDbBlockReference
  2
_DotSmall
 10
1551.90791530541
 20
1122.089656197283
 30
0.0
 41
25.0
 42
25.0
 43
25.0
  0
POINT
  5
B89
330
459
100
AcDbEntity
  8
Defpoints
 62
     0
100
AcDbPoint
 10
1536.90791530541
 20
1270.021773967338
 30
0.0
  0
POINT
  5
B8A
330
459
100
AcDbEntity
  8
Defpoints
 62
     0
100
AcDbPoint
 10
1551.90791530541
 20
1270.021773967338
 30
0.0
  0
POINT
  5
B8B
330
459
100
AcDbEntity
  8
Defpoints
 62
     0
100
AcDbPoint
 10
1551.90791530541
 20
1122.089656197283
 30
0.0
  0
ENDBLK
  5
466
330
459
100
AcDbEntity
  8
0
100
AcDbBlockEnd
  0
BLOCK
  5
4AE
330
4A4
100
AcDbEntity
  8
0
100
AcDbBlockBegin
  2
*D14
 70
     1
 10
0.0
 20
0.0
 30
0.0
  3
*D14
  1

  0
LINE
  5
B7B
330
4A4
100
AcDbEntity
  8
寸法
 62
     0
370
    15
100
AcDbLine
 10
591.9079153054099
 20
1205.021773967338
 30
0.0
 11
591.9079153054099
 21
1044.297746041414
 31
0.0
  0
LINE
  5
B7C
330
4A4
100
AcDbEntity
  8
寸法
 62
     0
370
    15
100
AcDbLine
 10
1551.90791530541
 20
1205.021773967338
 30
0.0
 11
1551.90791530541
 21
1044.297746041414
 31
0.0
  0
LINE
  5
B7D
330
4A4
100
AcDbEntity
  8
寸法
 62
     0
370
    18
100
AcDbLine
 10
591.9079153054099
 20
1044.297746041414
 30
0.0
 11
1551.90791530541
 21
1044.297746041414
 31
0.0
  0
INSERT
  5
B7E
330
4A4
100
AcDbEntity
  8
寸法
 62
     0
370
    18
100
AcDbBlockReference
  2
_DotSmall
 10
591.9079153054099
 20
1044.297746041414
 30
0.0
 41
25.0
 42
25.0
 43
25.0
 50
180.0
  0
INSERT
  5
B7F
330
4A4
100
AcDbEntity
  8
寸法
 62
     0
370
    18
100
AcDbBlockReference
  2
_DotSmall
 10
1551.90791530541
 20
1044.297746041414
 30
0.0
 41
25.0
 42
25.0
 43
25.0
  0
MTEXT
  5
B80
330
4A4
100
AcDbEntity
  8
寸法
 62
     0
100
AcDbMText
 10
1071.90791530541
 20
1063.047746041414
 30
0.0
 40
25.0
 41
0.0
 71
     5
 72
     1
  1
960
 73
     1
 44
1.0
1001
ACAD
1000
MTEXTBEGIN
1070
    73
1070
     1
1070
    44
1040
1.0
1070
    74
1070
     0
1000
MTEXTEND
  0
POINT
  5
B81
330
4A4
100
AcDbEntity
  8
Defpoints
 62
     0
100
AcDbPoint
 10
591.9079153054099
 20
1270.021773967338
 30
0.0
  0
POINT
  5
B82
330
4A4
100
AcDbEntity
  8
Defpoints
 62
     0
100
AcDbPoint
 10
1551.90791530541
 20
1270.021773967338
 30
0.0
  0
POINT
  5
B83
330
4A4
100
AcDbEntity
  8
Defpoints
 62
     0
100
AcDbPoint
 10
1551.90791530541
 20
1044.297746041414
 30
0.0
  0
ENDBLK
  5
4AF
330
4A4
100
AcDbEntity
  8
0
100
AcDbBlockEnd
  0
BLOCK
  5
503
330
4F9
100
AcDbEntity
  8
0
100
AcDbBlockBegin
  2
*D15
 70
     1
 10
0.0
 20
0.0
 30
0.0
  3
*D15
  1

  0
LINE
  5
C5E
330
4F9
100
AcDbEntity
  8
寸法
 62
     0
370
    15
100
AcDbLine
 10
676.9079153054099
 20
560.021773967338
 30
0.0
 11
676.9079153054099
 21
508.5943666662651
 31
0.0
  0
LINE
  5
C5F
330
4F9
100
AcDbEntity
  8
寸法
 62
     0
370
    15
100
AcDbLine
 10
836.9079153054098
 20
560.021773967338
 30
0.0
 11
836.9079153054098
 21
508.5943666662651
 31
0.0
  0
LINE
  5
C60
330
4F9
100
AcDbEntity
  8
寸法
 62
     0
370
    18
100
AcDbLine
 10
676.9079153054099
 20
508.5943666662651
 30
0.0
 11
836.9079153054098
 21
508.5943666662651
 31
0.0
  0
INSERT
  5
C61
330
4F9
100
AcDbEntity
  8
寸法
 62
     0
370
    18
100
AcDbBlockReference
  2
_DotSmall
 10
676.9079153054099
 20
508.5943666662651
 30
0.0
 41
25.0
 42
25.0
 43
25.0
 50
180.0
  0
INSERT
  5
C62
330
4F9
100
AcDbEntity
  8
寸法
 62
     0
370
    18
100
AcDbBlockReference
  2
_DotSmall
 10
836.9079153054098
 20
508.5943666662651
 30
0.0
 41
25.0
 42
25.0
 43
25.0
  0
MTEXT
  5
C63
330
4F9
100
AcDbEntity
  8
寸法
 62
     0
100
AcDbMText
 10
756.9079153054099
 20
527.3443666662651
 30
0.0
 40
25.0
 41
0.0
 71
     5
 72
     1
  1
158
 73
     1
 44
1.0
1001
ACAD
1000
MTEXTBEGIN
1070
    73
1070
     1
1070
    44
1040
1.0
1070
    74
1070
     0
1000
MTEXTEND
  0
POINT
  5
C64
330
4F9
100
AcDbEntity
  8
Defpoints
 62
     0
100
AcDbPoint
 10
676.9079153054099
 20
625.021773967338
 30
0.0
  0
POINT
  5
C65
330
4F9
100
AcDbEntity
  8
Defpoints
 62
     0
100
AcDbPoint
 10
836.9079153054098
 20
625.021773967338
 30
0.0
  0
POINT
  5
C66
330
4F9
100
AcDbEntity
  8
Defpoints
 62
     0
100
AcDbPoint
 10
836.9079153054098
 20
508.5943666662651
 30
0.0
  0
ENDBLK
  5
504
330
4F9
100
AcDbEntity
  8
0
100
AcDbBlockEnd
  0
BLOCK
  5
510
330
506
100
AcDbEntity
  8
0
100
AcDbBlockBegin
  2
*D16
 70
     1
 10
0.0
 20
0.0
 30
0.0
  3
*D16
  1

  0
LINE
  5
B58
330
506
100
AcDbEntity
  8
寸法
 62
     0
370
    15
100
AcDbLine
 10
666.4079153054099
 20
560.0217739673381
 30
0.0
 11
666.4079153054099
 21
448.6349680973362
 31
0.0
  0
LINE
  5
B59
330
506
100
AcDbEntity
  8
寸法
 62
     0
370
    15
100
AcDbLine
 10
847.4079153054098
 20
560.021773967338
 30
0.0
 11
847.4079153054098
 21
448.6349680973362
 31
0.0
  0
LINE
  5
B5A
330
506
100
AcDbEntity
  8
寸法
 62
     0
370
    18
100
AcDbLine
 10
666.4079153054099
 20
448.6349680973362
 30
0.0
 11
847.4079153054098
 21
448.6349680973362
 31
0.0
  0
INSERT
  5
B5B
330
506
100
AcDbEntity
  8
寸法
 62
     0
370
    18
100
AcDbBlockReference
  2
_DotSmall
 10
666.4079153054099
 20
448.6349680973362
 30
0.0
 41
25.0
 42
25.0
 43
25.0
 50
180.0
  0
INSERT
  5
B5C
330
506
100
AcDbEntity
  8
寸法
 62
     0
370
    18
100
AcDbBlockReference
  2
_DotSmall
 10
847.4079153054098
 20
448.6349680973362
 30
0.0
 41
25.0
 42
25.0
 43
25.0
  0
MTEXT
  5
B5D
330
506
100
AcDbEntity
  8
寸法
 62
     0
100
AcDbMText
 10
756.9079153054099
 20
467.3849680973362
 30
0.0
 40
25.0
 41
0.0
 71
     5
 72
     1
  1
181
 73
     1
 44
1.0
1001
ACAD
1000
MTEXTBEGIN
1070
    73
1070
     1
1070
    44
1040
1.0
1070
    74
1070
     0
1000
MTEXTEND
  0
POINT
  5
B5E
330
506
100
AcDbEntity
  8
Defpoints
 62
     0
100
AcDbPoint
 10
666.4079153054099
 20
625.0217739673381
 30
0.0
  0
POINT
  5
B5F
330
506
100
AcDbEntity
  8
Defpoints
 62
     0
100
AcDbPoint
 10
847.4079153054098
 20
625.021773967338
 30
0.0
  0
POINT
  5
B60
330
506
100
AcDbEntity
  8
Defpoints
 62
     0
100
AcDbPoint
 10
847.4079153054098
 20
448.6349680973362
 30
0.0
  0
ENDBLK
  5
511
330
506
100
AcDbEntity
  8
0
100
AcDbBlockEnd
  0
BLOCK
  5
574
330
56A
100
AcDbEntity
  8
0
100
AcDbBlockBegin
  2
*D17
 70
     1
 10
0.0
 20
0.0
 30
0.0
  3
*D17
  1

  0
LINE
  5
C67
330
56A
100
AcDbEntity
  8
寸法
 62
     0
370
    15
100
AcDbLine
 10
2093.402202165556
 20
1575.021773967338
 30
0.0
 11
2138.708346257477
 21
1575.021773967338
 31
0.0
  0
LINE
  5
C68
330
56A
100
AcDbEntity
  8
寸法
 62
     0
370
    15
100
AcDbLine
 10
2093.402202165557
 20
1415.021773967338
 30
0.0
 11
2138.708346257477
 21
1415.021773967338
 31
0.0
  0
LINE
  5
C69
330
56A
100
AcDbEntity
  8
寸法
 62
     0
370
    18
100
AcDbLine
 10
2138.708346257477
 20
1575.021773967338
 30
0.0
 11
2138.708346257477
 21
1415.021773967338
 31
0.0
  0
INSERT
  5
C6A
330
56A
100
AcDbEntity
  8
寸法
 62
     0
370
    18
100
AcDbBlockReference
  2
_DotSmall
 10
2138.708346257477
 20
1575.021773967338
 30
0.0
 41
25.0
 42
25.0
 43
25.0
 50
90.0
  0
INSERT
  5
C6B
330
56A
100
AcDbEntity
  8
寸法
 62
     0
370
    18
100
AcDbBlockReference
  2
_DotSmall
 10
2138.708346257477
 20
1415.021773967338
 30
0.0
 41
25.0
 42
25.0
 43
25.0
 50
270.0
  0
MTEXT
  5
C6C
330
56A
100
AcDbEntity
  8
寸法
 62
     0
100
AcDbMText
 10
2119.958346257476
 20
1495.021773967338
 30
0.0
 40
25.0
 41
0.0
 71
     5
 72
     1
  1
158
 11
0.0000000000000001
 21
1.0
 31
0.0
 73
     1
 44
1.0
1001
ACAD
1000
MTEXTBEGIN
1070
    73
1070
     1
1070
    44
1040
1.0
1070
    74
1070
     0
1000
MTEXTEND
  0
POINT
  5
C6D
330
56A
100
AcDbEntity
  8
Defpoints
 62
     0
100
AcDbPoint
 10
2028.402202165557
 20
1575.021773967338
 30
0.0
  0
POINT
  5
C6E
330
56A
100
AcDbEntity
  8
Defpoints
 62
     0
100
AcDbPoint
 10
2028.402202165557
 20
1415.021773967338
 30
0.0
  0
POINT
  5
C6F
330
56A
100
AcDbEntity
  8
Defpoints
 62
     0
100
AcDbPoint
 10
2138.708346257477
 20
1415.021773967338
 30
0.0
  0
ENDBLK
  5
575
330
56A
100
AcDbEntity
  8
0
100
AcDbBlockEnd
  0
BLOCK
  5
58A
330
580
100
AcDbEntity
  8
0
100
AcDbBlockBegin
  2
*D18
 70
     1
 10
0.0
 20
0.0
 30
0.0
  3
*D18
  1

  0
LINE
  5
B35
330
580
100
AcDbEntity
  8
寸法
 62
     0
370
    15
100
AcDbLine
 10
2093.402202165556
 20
1585.521773967338
 30
0.0
 11
2203.629934222318
 21
1585.521773967338
 31
0.0
  0
LINE
  5
B36
330
580
100
AcDbEntity
  8
寸法
 62
     0
370
    15
100
AcDbLine
 10
2093.402202165557
 20
1404.521773967338
 30
0.0
 11
2203.629934222318
 21
1404.521773967338
 31
0.0
  0
LINE
  5
B37
330
580
100
AcDbEntity
  8
寸法
 62
     0
370
    18
100
AcDbLine
 10
2203.629934222318
 20
1585.521773967338
 30
0.0
 11
2203.629934222318
 21
1404.521773967338
 31
0.0
  0
INSERT
  5
B38
330
580
100
AcDbEntity
  8
寸法
 62
     0
370
    18
100
AcDbBlockReference
  2
_DotSmall
 10
2203.629934222318
 20
1585.521773967338
 30
0.0
 41
25.0
 42
25.0
 43
25.0
 50
90.0
  0
INSERT
  5
B39
330
580
100
AcDbEntity
  8
寸法
 62
     0
370
    18
100
AcDbBlockReference
  2
_DotSmall
 10
2203.629934222318
 20
1404.521773967338
 30
0.0
 41
25.0
 42
25.0
 43
25.0
 50
270.0
  0
MTEXT
  5
B3A
330
580
100
AcDbEntity
  8
寸法
 62
     0
100
AcDbMText
 10
2184.879934222318
 20
1495.021773967338
 30
0.0
 40
25.0
 41
0.0
 71
     5
 72
     1
  1
181
 11
0.0000000000000001
 21
1.0
 31
0.0
 73
     1
 44
1.0
1001
ACAD
1000
MTEXTBEGIN
1070
    73
1070
     1
1070
    44
1040
1.0
1070
    74
1070
     0
1000
MTEXTEND
  0
POINT
  5
B3B
330
580
100
AcDbEntity
  8
Defpoints
 62
     0
100
AcDbPoint
 10
2028.402202165557
 20
1585.521773967338
 30
0.0
  0
POINT
  5
B3C
330
580
100
AcDbEntity
  8
Defpoints
 62
     0
100
AcDbPoint
 10
2028.402202165557
 20
1404.521773967338
 30
0.0
  0
POINT
  5
B3D
330
580
100
AcDbEntity
  8
Defpoints
 62
     0
100
AcDbPoint
 10
2203.629934222318
 20
1404.521773967338
 30
0.0
  0
ENDBLK
  5
58B
330
580
100
AcDbEntity
  8
0
100
AcDbBlockEnd
  0
BLOCK
  5
815
330
80B
100
AcDbEntity
  8
0
100
AcDbBlockBegin
  2
*D19
 70
     1
 10
0.0
 20
0.0
 30
0.0
  3
*D19
  1

  0
LINE
  5
B2C
330
80B
100
AcDbEntity
  8
寸法
 62
     0
370
    18
100
AcDbLine
 10
2050.708050996714
 20
585.8988653841852
 30
0.0
 11
2050.708050996714
 21
619.7827626574945
 31
0.0
  0
LINE
  5
B2D
330
80B
100
AcDbEntity
  8
寸法
 62
     0
370
    18
100
AcDbLine
 10
2300.708050996714
 20
585.8988653841852
 30
0.0
 11
2300.708050996714
 21
619.7827626574945
 31
0.0
  0
LINE
  5
B2E
330
80B
100
AcDbEntity
  8
寸法
 62
     0
370
    18
100
AcDbLine
 10
2050.708050996714
 20
619.7827626574945
 30
0.0
 11
2300.708050996714
 21
619.7827626574945
 31
0.0
  0
INSERT
  5
B2F
330
80B
100
AcDbEntity
  8
寸法
 62
     0
370
    18
100
AcDbBlockReference
  2
_DotSmall
 10
2050.708050996714
 20
619.7827626574945
 30
0.0
 41
25.0
 42
25.0
 43
25.0
 50
180.0
  0
INSERT
  5
B30
330
80B
100
AcDbEntity
  8
寸法
 62
     0
370
    18
100
AcDbBlockReference
  2
_DotSmall
 10
2300.708050996714
 20
619.7827626574945
 30
0.0
 41
25.0
 42
25.0
 43
25.0
  0
MTEXT
  5
B31
330
80B
100
AcDbEntity
  8
寸法
 62
     0
100
AcDbMText
 10
2175.708050996714
 20
638.5327626574945
 30
0.0
 40
25.0
 41
0.0
 71
     5
 72
     1
  1
50
 73
     1
 44
1.0
1001
ACAD
1000
MTEXTBEGIN
1070
    73
1070
     1
1070
    44
1040
1.0
1070
    74
1070
     0
1000
MTEXTEND
  0
POINT
  5
B32
330
80B
100
AcDbEntity
  8
Defpoints
 62
     0
100
AcDbPoint
 10
2050.708050996714
 20
520.8988653841852
 30
0.0
  0
POINT
  5
B33
330
80B
100
AcDbEntity
  8
Defpoints
 62
     0
100
AcDbPoint
 10
2300.708050996714
 20
520.8988653841852
 30
0.0
  0
POINT
  5
B34
330
80B
100
AcDbEntity
  8
Defpoints
 62
     0
100
AcDbPoint
 10
2300.708050996714
 20
619.7827626574945
 30
0.0
  0
ENDBLK
  5
816
330
80B
100
AcDbEntity
  8
0
100
AcDbBlockEnd
  0
BLOCK
  5
82F
330
825
100
AcDbEntity
  8
0
100
AcDbBlockBegin
  2
*D20
 70
     1
 10
0.0
 20
0.0
 30
0.0
  3
*D20
  1

  0
LINE
  5
B23
330
825
100
AcDbEntity
  8
寸法
 62
     0
370
    18
100
AcDbLine
 10
2335.708050996714
 20
585.8988653841852
 30
0.0
 11
2335.708050996714
 21
670.8176021227755
 31
0.0
  0
LINE
  5
B24
330
825
100
AcDbEntity
  8
寸法
 62
     0
370
    18
100
AcDbLine
 10
2015.708050996714
 20
585.8988653841852
 30
0.0
 11
2015.708050996714
 21
670.8176021227755
 31
0.0
  0
LINE
  5
B25
330
825
100
AcDbEntity
  8
寸法
 62
     0
370
    18
100
AcDbLine
 10
2335.708050996714
 20
670.8176021227755
 30
0.0
 11
2015.708050996714
 21
670.8176021227755
 31
0.0
  0
INSERT
  5
B26
330
825
100
AcDbEntity
  8
寸法
 62
     0
370
    18
100
AcDbBlockReference
  2
_DotSmall
 10
2335.708050996714
 20
670.8176021227755
 30
0.0
 41
25.0
 42
25.0
 43
25.0
  0
INSERT
  5
B27
330
825
100
AcDbEntity
  8
寸法
 62
     0
370
    18
100
AcDbBlockReference
  2
_DotSmall
 10
2015.708050996714
 20
670.8176021227755
 30
0.0
 41
25.0
 42
25.0
 43
25.0
 50
180.0
  0
MTEXT
  5
B28
330
825
100
AcDbEntity
  8
寸法
 62
     0
100
AcDbMText
 10
2175.708050996714
 20
689.5676021227755
 30
0.0
 40
25.0
 41
0.0
 71
     5
 72
     1
  1
64
 73
     1
 44
1.0
1001
ACAD
1000
MTEXTBEGIN
1070
    73
1070
     1
1070
    44
1040
1.0
1070
    74
1070
     0
1000
MTEXTEND
  0
POINT
  5
B29
330
825
100
AcDbEntity
  8
Defpoints
 62
     0
100
AcDbPoint
 10
2335.708050996714
 20
520.8988653841852
 30
0.0
  0
POINT
  5
B2A
330
825
100
AcDbEntity
  8
Defpoints
 62
     0
100
AcDbPoint
 10
2015.708050996714
 20
520.8988653841852
 30
0.0
  0
POINT
  5
B2B
330
825
100
AcDbEntity
  8
Defpoints
 62
     0
100
AcDbPoint
 10
2015.708050996714
 20
670.8176021227755
 30
0.0
  0
ENDBLK
  5
830
330
825
100
AcDbEntity
  8
0
100
AcDbBlockEnd
  0
BLOCK
  5
845
330
83B
100
AcDbEntity
  8
0
100
AcDbBlockBegin
  2
*D21
 70
     1
 10
0.0
 20
0.0
 30
0.0
  3
*D21
  1

  0
LINE
  5
B1A
330
83B
100
AcDbEntity
  8
寸法
 62
     0
370
    18
100
AcDbLine
 10
1988.208050996713
 20
585.8988653841852
 30
0.0
 11
1988.208050996713
 21
718.0248287471658
 31
0.0
  0
LINE
  5
B1B
330
83B
100
AcDbEntity
  8
寸法
 62
     0
370
    18
100
AcDbLine
 10
2363.208050996714
 20
585.8988653841852
 30
0.0
 11
2363.208050996714
 21
718.0248287471658
 31
0.0
  0
LINE
  5
B1C
330
83B
100
AcDbEntity
  8
寸法
 62
     0
370
    18
100
AcDbLine
 10
1988.208050996713
 20
718.0248287471658
 30
0.0
 11
2363.208050996714
 21
718.0248287471658
 31
0.0
  0
INSERT
  5
B1D
330
83B
100
AcDbEntity
  8
寸法
 62
     0
370
    18
100
AcDbBlockReference
  2
_DotSmall
 10
1988.208050996713
 20
718.0248287471658
 30
0.0
 41
25.0
 42
25.0
 43
25.0
 50
180.0
  0
INSERT
  5
B1E
330
83B
100
AcDbEntity
  8
寸法
 62
     0
370
    18
100
AcDbBlockReference
  2
_DotSmall
 10
2363.208050996714
 20
718.0248287471658
 30
0.0
 41
25.0
 42
25.0
 43
25.0
  0
MTEXT
  5
B1F
330
83B
100
AcDbEntity
  8
寸法
 62
     0
100
AcDbMText
 10
2175.708050996714
 20
736.7748287471658
 30
0.0
 40
25.0
 41
0.0
 71
     5
 72
     1
  1
75
 73
     1
 44
1.0
1001
ACAD
1000
MTEXTBEGIN
1070
    73
1070
     1
1070
    44
1040
1.0
1070
    74
1070
     0
1000
MTEXTEND
  0
POINT
  5
B20
330
83B
100
AcDbEntity
  8
Defpoints
 62
     0
100
AcDbPoint
 10
1988.208050996713
 20
520.8988653841852
 30
0.0
  0
POINT
  5
B21
330
83B
100
AcDbEntity
  8
Defpoints
 62
     0
100
AcDbPoint
 10
2363.208050996714
 20
520.8988653841852
 30
0.0
  0
POINT
  5
B22
330
83B
100
AcDbEntity
  8
Defpoints
 62
     0
100
AcDbPoint
 10
2363.208050996714
 20
718.0248287471658
 30
0.0
  0
ENDBLK
  5
846
330
83B
100
AcDbEntity
  8
0
100
AcDbBlockEnd
  0
BLOCK
  5
85B
330
851
100
AcDbEntity
  8
0
100
AcDbBlockBegin
  2
*D22
 70
     1
 10
0.0
 20
0.0
 30
0.0
  3
*D22
  1

  0
LINE
  5
B11
330
851
100
AcDbEntity
  8
寸法
 62
     0
370
    18
100
AcDbLine
 10
2428.208050996714
 20
520.8988653841852
 30
0.0
 11
2464.661063767306
 21
520.8988653841852
 31
0.0
  0
LINE
  5
B12
330
851
100
AcDbEntity
  8
寸法
 62
     0
370
    18
100
AcDbLine
 10
2428.208050996714
 20
420.8988653841852
 30
0.0
 11
2464.661063767306
 21
420.8988653841851
 31
0.0
  0
LINE
  5
B13
330
851
100
AcDbEntity
  8
寸法
 62
     0
370
    18
100
AcDbLine
 10
2464.661063767306
 20
520.8988653841852
 30
0.0
 11
2464.661063767306
 21
420.8988653841851
 31
0.0
  0
INSERT
  5
B14
330
851
100
AcDbEntity
  8
寸法
 62
     0
370
    18
100
AcDbBlockReference
  2
_DotSmall
 10
2464.661063767306
 20
520.8988653841852
 30
0.0
 41
25.0
 42
25.0
 43
25.0
 50
90.0
  0
INSERT
  5
B15
330
851
100
AcDbEntity
  8
寸法
 62
     0
370
    18
100
AcDbBlockReference
  2
_DotSmall
 10
2464.661063767306
 20
420.8988653841851
 30
0.0
 41
25.0
 42
25.0
 43
25.0
 50
270.0
  0
MTEXT
  5
B16
330
851
100
AcDbEntity
  8
寸法
 62
     0
100
AcDbMText
 10
2445.911063767306
 20
470.8988653841855
 30
0.0
 40
25.0
 41
0.0
 71
     5
 72
     1
  1
20
 11
0.0000000000000001
 21
1.0
 31
0.0
 73
     1
 44
1.0
1001
ACAD
1000
MTEXTBEGIN
1070
    73
1070
     1
1070
    44
1040
1.0
1070
    74
1070
     0
1000
MTEXTEND
  0
POINT
  5
B17
330
851
100
AcDbEntity
  8
Defpoints
 62
     0
100
AcDbPoint
 10
2363.208050996714
 20
520.8988653841852
 30
0.0
  0
POINT
  5
B18
330
851
100
AcDbEntity
  8
Defpoints
 62
     0
100
AcDbPoint
 10
2363.208050996714
 20
420.8988653841852
 30
0.0
  0
POINT
  5
B19
330
851
100
AcDbEntity
  8
Defpoints
 62
     0
100
AcDbPoint
 10
2464.661063767306
 20
420.8988653841851
 30
0.0
  0
ENDBLK
  5
85C
330
851
100
AcDbEntity
  8
0
100
AcDbBlockEnd
  0
BLOCK
  5
868
330
85E
100
AcDbEntity
  8
0
100
AcDbBlockBegin
  2
*D23
 70
     1
 10
0.0
 20
0.0
 30
0.0
  3
*D23
  1

  0
LINE
  5
B08
330
85E
100
AcDbEntity
  8
寸法
 62
     0
370
    18
100
AcDbLine
 10
2428.208050996714
 20
546.3988653841852
 30
0.0
 11
2510.628729056416
 21
546.3988653841852
 31
0.0
  0
LINE
  5
B09
330
85E
100
AcDbEntity
  8
寸法
 62
     0
370
    18
100
AcDbLine
 10
2428.208050996714
 20
395.3988653841852
 30
0.0
 11
2510.628729056416
 21
395.3988653841852
 31
0.0
  0
LINE
  5
B0A
330
85E
100
AcDbEntity
  8
寸法
 62
     0
370
    18
100
AcDbLine
 10
2510.628729056416
 20
546.3988653841852
 30
0.0
 11
2510.628729056416
 21
395.3988653841852
 31
0.0
  0
INSERT
  5
B0B
330
85E
100
AcDbEntity
  8
寸法
 62
     0
370
    18
100
AcDbBlockReference
  2
_DotSmall
 10
2510.628729056416
 20
546.3988653841852
 30
0.0
 41
25.0
 42
25.0
 43
25.0
 50
90.0
  0
INSERT
  5
B0C
330
85E
100
AcDbEntity
  8
寸法
 62
     0
370
    18
100
AcDbBlockReference
  2
_DotSmall
 10
2510.628729056416
 20
395.3988653841852
 30
0.0
 41
25.0
 42
25.0
 43
25.0
 50
270.0
  0
MTEXT
  5
B0D
330
85E
100
AcDbEntity
  8
寸法
 62
     0
100
AcDbMText
 10
2491.878729056416
 20
470.8988653841855
 30
0.0
 40
25.0
 41
0.0
 71
     5
 72
     1
  1
31
 11
0.0000000000000001
 21
1.0
 31
0.0
 73
     1
 44
1.0
1001
ACAD
1000
MTEXTBEGIN
1070
    73
1070
     1
1070
    44
1040
1.0
1070
    74
1070
     0
1000
MTEXTEND
  0
POINT
  5
B0E
330
85E
100
AcDbEntity
  8
Defpoints
 62
     0
100
AcDbPoint
 10
2363.208050996714
 20
546.3988653841852
 30
0.0
  0
POINT
  5
B0F
330
85E
100
AcDbEntity
  8
Defpoints
 62
     0
100
AcDbPoint
 10
2363.208050996714
 20
395.3988653841852
 30
0.0
  0
POINT
  5
B10
330
85E
100
AcDbEntity
  8
Defpoints
 62
     0
100
AcDbPoint
 10
2510.628729056416
 20
395.3988653841852
 30
0.0
  0
ENDBLK
  5
869
330
85E
100
AcDbEntity
  8
0
100
AcDbBlockEnd
  0
ENDSEC
  0
SECTION
  2
ENTITIES
  0
LINE
  5
9C
330
1F
100
AcDbEntity
  8
補助
100
AcDbLine
 10
114.0
 20
4.0
 30
0.0
 11
2784.0
 21
4.0
 31
0.0
  0
LINE
  5
A0
330
1F
100
AcDbEntity
  8
補助
100
AcDbLine
 10
2784.0
 20
2024.0
 30
0.0
 11
114.0
 21
2024.0
 31
0.0
  0
LINE
  5
A5
330
1F
100
AcDbEntity
  8
補助
100
AcDbLine
 10
2784.0
 20
4.0
 30
0.0
 11
2784.0
 21
2024.0
 31
0.0
  0
LINE
  5
2E6
330
1F
100
AcDbEntity
  8
実形
100
AcDbLine
 10
591.9079153054099
 20
835.021773967338
 30
0.0
 11
1551.90791530541
 21
835.021773967338
 31
0.0
  0
CIRCLE
  5
2EB
330
1F
100
AcDbEntity
  8
実形
100
AcDbCircle
 10
756.9079153054099
 20
1495.021773967338
 30
0.0
 40
79.0
  0
CIRCLE
  5
2EE
330
1F
100
AcDbEntity
  8
実形
100
AcDbCircle
 10
756.9079153054099
 20
1495.021773967338
 30
0.0
 40
90.5
  0
LINE
  5
2F7
330
1F
100
AcDbEntity
  8
実形
100
AcDbLine
 10
606.9079153054099
 20
835.021773967338
 30
0.0
 11
606.9079153054099
 21
673.3973872264623
 31
0.0
  0
LINE
  5
2F9
330
1F
100
AcDbEntity
  8
実形
100
AcDbLine
 10
666.4079153054099
 20
635.021773967338
 30
0.0
 11
836.9079153054098
 21
635.021773967338
 31
0.0
  0
LINE
  5
2FA
330
1F
100
AcDbEntity
  8
実形
100
AcDbLine
 10
836.9079153054098
 20
635.021773967338
 30
0.0
 11
847.4079153054098
 21
635.021773967338
 31
0.0
  0
LINE
  5
2FB
330
1F
100
AcDbEntity
  8
実形
100
AcDbLine
 10
847.4079153054098
 20
635.021773967338
 30
0.0
 11
847.4079153054098
 21
635.021773967338
 31
0.0
  0
LINE
  5
2FD
330
1F
100
AcDbEntity
  8
実形
100
AcDbLine
 10
1536.90791530541
 20
679.3762254137852
 30
0.0
 11
1536.90791530541
 21
835.021773967338
 31
0.0
  0
LINE
  5
2FE
330
1F
100
AcDbEntity
  8
実形
100
AcDbLine
 10
1818.402202165556
 20
1720.021773967338
 30
0.0
 11
1818.402202165556
 21
1270.021773967338
 31
0.0
  0
LINE
  5
301
330
1F
100
AcDbEntity
  8
実形
100
AcDbLine
 10
2018.402202165557
 20
1404.521773967338
 30
0.0
 11
2018.402202165557
 21
1585.521773967338
 31
0.0
  0
LINE
  5
306
330
1F
100
AcDbEntity
  8
実形
100
AcDbLine
 10
666.4079153054099
 20
635.021773967338
 30
0.0
 11
666.4079153054099
 21
625.021773967338
 31
0.0
  0
LINE
  5
307
330
1F
100
AcDbEntity
  8
実形
100
AcDbLine
 10
666.4079153054099
 20
625.021773967338
 30
0.0
 11
847.4079153054098
 21
625.021773967338
 31
0.0
  0
LINE
  5
308
330
1F
100
AcDbEntity
  8
実形
100
AcDbLine
 10
847.4079153054098
 20
625.021773967338
 30
0.0
 11
847.4079153054098
 21
635.021773967338
 31
0.0
  0
LINE
  5
309
330
1F
100
AcDbEntity
  8
実形
100
AcDbLine
 10
2018.402202165557
 20
1585.521773967338
 30
0.0
 11
2028.402202165557
 21
1585.521773967338
 31
0.0
  0
LINE
  5
30A
330
1F
100
AcDbEntity
  8
実形
100
AcDbLine
 10
2028.402202165557
 20
1585.521773967338
 30
0.0
 11
2028.402202165557
 21
1404.521773967338
 31
0.0
  0
LINE
  5
30B
330
1F
100
AcDbEntity
  8
実形
100
AcDbLine
 10
2028.402202165557
 20
1404.521773967338
 30
0.0
 11
2018.402202165557
 21
1404.521773967338
 31
0.0
  0
LINE
  5
32C
330
1F
100
AcDbEntity
  8
実形
100
AcDbLine
 10
1853.402202165557
 20
1517.521773967338
 30
0.0
 11
1853.402202165556
 21
1472.521773967338
 31
0.0
  0
LINE
  5
32D
330
1F
100
AcDbEntity
  8
実形
100
AcDbLine
 10
1868.402202165556
 20
1457.521773967338
 30
0.0
 11
1868.402202165556
 21
1457.521773967338
 31
0.0
  0
LINE
  5
32E
330
1F
100
AcDbEntity
  8
実形
100
AcDbLine
 10
1883.402202165556
 20
1472.521773967338
 30
0.0
 11
1883.402202165556
 21
1517.521773967338
 31
0.0
  0
LINE
  5
32F
330
1F
100
AcDbEntity
  8
実形
100
AcDbLine
 10
1868.402202165556
 20
1532.521773967338
 30
0.0
 11
1868.402202165557
 21
1532.521773967338
 31
0.0
  0
LINE
  5
331
330
1F
100
AcDbEntity
  8
実形
  6
HIDDEN2
100
AcDbLine
 10
607.3767385704946
 20
1532.521773967338
 30
0.0
 11
597.8455618355792
 21
1532.521773967338
 31
0.0
  0
LINE
  5
332
330
1F
100
AcDbEntity
  8
実形
  6
HIDDEN2
100
AcDbLine
 10
597.8455618355792
 20
1532.521773967338
 30
0.0
 11
597.8455618355792
 21
1457.521773967338
 31
0.0
  0
LINE
  5
333
330
1F
100
AcDbEntity
  8
実形
  6
HIDDEN2
100
AcDbLine
 10
597.8455618355792
 20
1457.521773967338
 30
0.0
 11
607.3767385704946
 21
1457.521773967338
 31
0.0
  0
ARC
  5
334
330
1F
100
AcDbEntity
  8
実形
100
AcDbCircle
 10
1868.402202165556
 20
1517.521773967338
 30
0.0
 40
15.0
100
AcDbArc
 50
0.0
 51
90.0
  0
ARC
  5
335
330
1F
100
AcDbEntity
  8
実形
100
AcDbCircle
 10
1868.402202165556
 20
1472.521773967338
 30
0.0
 40
15.0
100
AcDbArc
 50
270.0
 51
0.0000000000002163
  0
ARC
  5
336
330
1F
100
AcDbEntity
  8
実形
100
AcDbCircle
 10
1868.402202165556
 20
1472.521773967338
 30
0.0
 40
15.0
100
AcDbArc
 50
180.0
 51
269.9999999999992
  0
ARC
  5
337
330
1F
100
AcDbEntity
  8
実形
100
AcDbCircle
 10
1868.402202165557
 20
1517.521773967338
 30
0.0
 40
15.0
100
AcDbArc
 50
90.0
 51
179.9999999999998
  0
LINE
  5
33A
330
1F
100
AcDbEntity
  8
センター
370
    15
100
AcDbLine
 10
581.6043632254141
 20
1495.021773967338
 30
0.0
 11
932.2114673854057
 21
1495.021773967338
 31
0.0
  0
LINE
  5
33B
330
1F
100
AcDbEntity
  8
センター
370
    15
100
AcDbLine
 10
756.9079153054099
 20
1675.325326047334
 30
0.0
 11
756.9079153054099
 21
1319.718221887342
 31
0.0
  0
LINE
  5
33C
330
1F
100
AcDbEntity
  8
センター
 48
0.5
370
    15
100
AcDbLine
 10
756.9079153054099
 20
713.2383978427514
 30
0.0
 11
756.9079153054099
 21
556.8225775354513
 31
0.0
  0
LINE
  5
33D
330
1F
100
AcDbEntity
  8
センター
 48
0.7
370
    15
100
AcDbLine
 10
1766.975253086154
 20
1495.021773967338
 30
0.0
 11
2071.221651013206
 21
1495.021773967338
 31
0.0
  0
LINE
  5
353
330
1F
100
AcDbEntity
  8
センター
 48
0.4
370
    15
100
AcDbLine
 10
1868.402202165556
 20
1585.874723999863
 30
0.0
 11
1868.402202165556
 21
1402.543737254398
 31
0.0
  0
LINE
  5
356
330
1F
100
AcDbEntity
  8
実形
100
AcDbLine
 10
629.574342545628
 20
644.3075486126613
 30
0.0
 11
666.4079153054099
 21
635.021773967338
 31
0.0
  0
LINE
  5
357
330
1F
100
AcDbEntity
  8
実形
100
AcDbLine
 10
847.4079153054098
 20
635.021773967338
 30
0.0
 11
1507.560407764884
 21
649.3833220266449
 31
0.0
  0
ARC
  5
358
330
1F
100
AcDbEntity
  8
実形
100
AcDbCircle
 10
636.9079153054099
 20
673.3973872264623
 30
0.0
 40
30.0
100
AcDbArc
 50
180.0
 51
255.8505239136548
  0
ARC
  5
359
330
1F
100
AcDbEntity
  8
実形
100
AcDbCircle
 10
1506.90791530541
 20
679.3762254137852
 30
0.0
 40
30.0
100
AcDbArc
 50
271.2462670743365
 51
0.0
  0
DIMENSION
  5
35B
330
1F
100
AcDbEntity
  8
寸法
100
AcDbDimension
  2
*D4
 10
606.9079153054099
 20
1798.824892130746
 30
0.0
 11
681.9079153054099
 21
1817.574892130746
 31
0.0
 70
    32
 71
     5
 42
150.0
  3
ISO-25
100
AcDbAlignedDimension
 13
756.9079153054099
 23
1585.521773967338
 33
0.0
 14
606.9079153054099
 24
1495.021773967338
 34
0.0
100
AcDbRotatedDimension
1001
ACAD
1000
DSTYLE
1002
{
1070
    41
1040
25.0
1070
   371
1070
    18
1002
}
  0
DIMENSION
  5
368
330
1F
100
AcDbEntity
  8
寸法
100
AcDbDimension
  2
*D5
 10
1071.90791530541
 20
1705.021773967338
 30
0.0
 11
1053.157915305409
 21
1600.021773967338
 31
0.0
 70
    32
  1
205
 71
     5
 42
210.0
  3
ISO-25
100
AcDbAlignedDimension
 13
847.40791530541
 23
1495.021773967338
 33
0.0
 14
1001.762120198948
 24
1705.021773967338
 34
0.0
 50
90.0
100
AcDbRotatedDimension
1001
ACAD
1000
DSTYLE
1002
{
1070
    41
1040
25.0
1070
   371
1070
    18
1002
}
  0
TEXT
  5
395
330
1F
100
AcDbEntity
  8
寸法
370
    18
100
AcDbText
 10
1082.738206612562
 20
1337.897413849365
 30
0.0
 40
25.0
  1
5000R
100
AcDbText
  0
TEXT
  5
397
330
1F
100
AcDbEntity
  8
寸法
370
    18
100
AcDbText
 10
1338.037724024621
 20
1524.741076090606
 30
0.0
 40
25.0
  1
1500R
100
AcDbText
  0
TEXT
  5
398
330
1F
100
AcDbEntity
  8
寸法
370
    18
100
AcDbText
 10
1379.996643720214
 20
1363.356582648695
 30
0.0
 40
25.0
  1
80R
100
AcDbText
  0
DIMENSION
  5
399
330
1F
100
AcDbEntity
  8
寸法
100
AcDbDimension
  2
*D6
 10
1868.402202165557
 20
1595.328311358754
 30
0.0
 11
1843.402202165556
 21
1614.078311358753
 31
0.0
 70
    32
 71
     5
 42
50.00000000000023
  3
ISO-25
100
AcDbAlignedDimension
 13
1818.402202165556
 23
1457.521773967338
 33
0.0
 14
1868.402202165557
 24
1532.521773967338
 34
0.0
100
AcDbRotatedDimension
1001
ACAD
1000
DSTYLE
1002
{
1070
    41
1040
25.0
1070
   371
1070
    18
1002
}
  0
TEXT
  5
3AF
330
1F
100
AcDbEntity
  8
寸法
100
AcDbText
 10
1399.106121270111
 20
694.2965529283979
 30
0.0
 40
25.0
  1
30R
100
AcDbText
  0
TEXT
  5
3B1
330
1F
100
AcDbEntity
  8
寸法
370
    18
100
AcDbText
 10
1877.438675157941
 20
1345.007600722105
 30
0.0
 40
25.0
  1
30R
100
AcDbText
  0
DIMENSION
  5
3CE
330
1F
100
AcDbEntity
  8
寸法
100
AcDbDimension
  2
*D7
 10
448.7326005815366
 20
1705.021773967338
 30
0.0
 11
448.7326005815363
 21
1712.521773967338
 31
0.0
 70
    32
  1
 
 71
     5
 42
15.0
  3
ISO-25
100
AcDbAlignedDimension
 13
591.9079153054099
 23
1720.021773967338
 33
0.0
 14
591.9079153054099
 24
1705.021773967338
 34
0.0
 50
90.0
100
AcDbRotatedDimension
1001
ACAD
1000
DSTYLE
1002
{
1070
    41
1040
25.0
1070
   371
1070
    18
1002
}
  0
DIMENSION
  5
3DC
330
1F
100
AcDbEntity
  8
寸法
100
AcDbDimension
  2
*D8
 10
448.7326005815366
 20
1285.021773967338
 30
0.0
 11
429.9826005815364
 21
1495.021773967338
 31
0.0
 70
    32
  1
410
 71
     5
 42
420.0
  3
ISO-25
100
AcDbAlignedDimension
 13
591.9079153054099
 23
1705.021773967338
 33
0.0
 14
591.9079153054099
 24
1285.021773967338
 34
0.0
 50
90.0
100
AcDbRotatedDimension
1001
ACAD
1000
DSTYLE
1002
{
1070
    41
1040
25.0
1070
   371
1070
    18
1070
   279
1070
     1
1002
}
  0
DIMENSION
  5
3E9
330
1F
100
AcDbEntity
  8
寸法
370
    18
100
AcDbDimension
  2
*D9
 10
448.7326005815366
 20
1270.021773967338
 30
0.0
 11
453.1664948769511
 21
1227.337533259112
 31
0.0
 70
   160
 71
     5
 42
15.0
  3
ISO-25
100
AcDbAlignedDimension
 13
591.9079153054099
 23
1285.021773967338
 33
0.0
 14
591.9079153054099
 24
1270.021773967338
 34
0.0
 50
90.0
100
AcDbRotatedDimension
1001
ACAD
1000
DSTYLE
1002
{
1070
    41
1040
25.0
1070
   371
1070
    18
1070
   279
1070
     1
1002
}
  0
DIMENSION
  5
3F6
330
1F
100
AcDbEntity
  8
寸法
100
AcDbDimension
  2
*D10
 10
379.8927022568523
 20
1270.021773967338
 30
0.0
 11
361.1427022568522
 21
1495.021773967338
 31
0.0
 70
    32
  1
440
 71
     5
 42
450.0
  3
ISO-25
100
AcDbAlignedDimension
 13
591.9079153054099
 23
1720.021773967338
 33
0.0
 14
591.9079153054099
 24
1270.021773967338
 34
0.0
 50
90.0
100
AcDbRotatedDimension
1001
ACAD
1000
DSTYLE
1002
{
1070
    41
1040
25.0
1070
   371
1070
    18
1002
}
  0
TEXT
  5
43C
330
1F
100
AcDbEntity
  8
寸法
370
    18
100
AcDbText
 10
453.1664948769511
 20
1745.272946906664
 30
0.0
 40
25.0
  1
15
 50
90.0
100
AcDbText
  0
DIMENSION
  5
43D
330
1F
100
AcDbEntity
  8
寸法
100
AcDbDimension
  2
*D11
 10
606.9079153054099
 20
1122.089656197283
 30
0.0
 11
666.4079153054099
 21
1122.089656197283
 31
0.0
 70
   160
  1
 
 71
     5
 42
15.0
  3
ISO-25
100
AcDbAlignedDimension
 13
591.9079153054099
 23
1270.021773967338
 33
0.0
 14
606.9079153054099
 24
1270.021773967338
 34
0.0
100
AcDbRotatedDimension
1001
ACAD
1000
DSTYLE
1002
{
1070
    41
1040
25.0
1070
   371
1070
    18
1002
}
  0
DIMENSION
  5
44B
330
1F
100
AcDbEntity
  8
寸法
100
AcDbDimension
  2
*D12
 10
1536.90791530541
 20
1122.089656197283
 30
0.0
 11
1071.90791530541
 21
1140.839656197283
 31
0.0
 70
    32
 71
     5
 42
930.0
  3
ISO-25
100
AcDbAlignedDimension
 13
606.9079153054099
 23
1270.021773967338
 33
0.0
 14
1536.90791530541
 24
1270.021773967338
 34
0.0
100
AcDbRotatedDimension
1001
ACAD
1000
DSTYLE
1002
{
1070
    41
1040
25.0
1070
   371
1070
    18
1070
   279
1070
     1
1002
}
  0
DIMENSION
  5
458
330
1F
100
AcDbEntity
  8
寸法
100
AcDbDimension
  2
*D13
 10
1551.90791530541
 20
1122.089656197283
 30
0.0
 11
1544.40791530541
 21
1122.089656197283
 31
0.0
 70
    32
  1
 
 71
     5
 42
15.0
  3
ISO-25
100
AcDbAlignedDimension
 13
1536.90791530541
 23
1270.021773967338
 33
0.0
 14
1551.90791530541
 24
1270.021773967338
 34
0.0
100
AcDbRotatedDimension
1001
ACAD
1000
DSTYLE
1002
{
1070
    41
1040
25.0
1070
   371
1070
    18
1070
   279
1070
     1
1002
}
  0
TEXT
  5
494
330
1F
100
AcDbEntity
  8
寸法
100
AcDbText
 10
533.3096988591941
 20
1124.377653831679
 30
0.0
 40
25.0
  1
15
100
AcDbText
  0
TEXT
  5
495
330
1F
100
AcDbEntity
  8
寸法
370
    18
100
AcDbText
 10
1575.171375352003
 20
1124.377653831679
 30
0.0
 40
25.0
  1
15
100
AcDbText
  0
DIMENSION
  5
4A3
330
1F
100
AcDbEntity
  8
寸法
100
AcDbDimension
  2
*D14
 10
1551.90791530541
 20
1044.297746041414
 30
0.0
 11
1071.90791530541
 21
1063.047746041414
 31
0.0
 70
    32
 71
     5
 42
960.0
  3
ISO-25
100
AcDbAlignedDimension
 13
591.9079153054099
 23
1270.021773967338
 33
0.0
 14
1551.90791530541
 24
1270.021773967338
 34
0.0
100
AcDbRotatedDimension
1001
ACAD
1000
DSTYLE
1002
{
1070
    41
1040
25.0
1070
   371
1070
    18
1002
}
  0
DIMENSION
  5
4F8
330
1F
100
AcDbEntity
  8
寸法
100
AcDbDimension
  2
*D15
 10
836.9079153054098
 20
508.5943666662651
 30
0.0
 11
756.9079153054099
 21
527.3443666662651
 31
0.0
 70
    32
  1
158
 71
     5
 42
160.0
  3
ISO-25
100
AcDbAlignedDimension
 13
676.9079153054099
 23
625.021773967338
 33
0.0
 14
836.9079153054098
 24
625.021773967338
 34
0.0
100
AcDbRotatedDimension
1001
ACAD
1000
DSTYLE
1002
{
1070
    41
1040
25.0
1070
   371
1070
    18
1002
}
  0
DIMENSION
  5
505
330
1F
100
AcDbEntity
  8
寸法
100
AcDbDimension
  2
*D16
 10
847.4079153054098
 20
448.6349680973362
 30
0.0
 11
756.9079153054099
 21
467.3849680973362
 31
0.0
 70
    32
 71
     5
 42
181.0
  3
ISO-25
100
AcDbAlignedDimension
 13
666.4079153054099
 23
625.0217739673381
 33
0.0
 14
847.4079153054098
 24
625.021773967338
 34
0.0
100
AcDbRotatedDimension
1001
ACAD
1000
DSTYLE
1002
{
1070
    41
1040
25.0
1070
   371
1070
    18
1002
}
  0
DIMENSION
  5
569
330
1F
100
AcDbEntity
  8
寸法
100
AcDbDimension
  2
*D17
 10
2138.708346257477
 20
1415.021773967338
 30
0.0
 11
2119.958346257476
 21
1495.021773967338
 31
0.0
 70
    32
  1
158
 71
     5
 42
160.0
  3
ISO-25
100
AcDbAlignedDimension
 13
2028.402202165557
 23
1575.021773967338
 33
0.0
 14
2028.402202165557
 24
1415.021773967338
 34
0.0
 50
90.0
100
AcDbRotatedDimension
1001
ACAD
1000
DSTYLE
1002
{
1070
    41
1040
25.0
1070
   371
1070
    18
1002
}
  0
DIMENSION
  5
57F
330
1F
100
AcDbEntity
  8
寸法
100
AcDbDimension
  2
*D18
 10
2203.629934222318
 20
1404.521773967338
 30
0.0
 11
2184.879934222318
 21
1495.021773967338
 31
0.0
 70
    32
 71
     5
 42
181.0
  3
ISO-25
100
AcDbAlignedDimension
 13
2028.402202165557
 23
1585.521773967338
 33
0.0
 14
2028.402202165557
 24
1404.521773967338
 34
0.0
 50
90.0
100
AcDbRotatedDimension
1001
ACAD
1000
DSTYLE
1002
{
1070
    41
1040
25.0
1070
   371
1070
    18
1002
}
  0
LEADER
  5
7CF
330
1F
100
AcDbEntity
  8
0
100
AcDbLeader
  3
ISO-25
 40
25.0
 41
16.66666666666666
 76
     2
 10
1030.270171093937
 20
1299.011248932062
 30
0.0
 10
1069.492580288581
 20
1333.848075150782
 30
0.0
213
0.0
223
-12.5
233
0.0
1001
ACAD
1000
DSTYLE
1002
{
1070
    41
1040
25.0
1070
   147
1040
6.25
1070
    77
1070
     0
1070
    73
1070
     1
1070
    74
1070
     1
1070
   279
1070
     1
1070
   342
1005
DA
1002
}
  0
LEADER
  5
7D0
330
1F
100
AcDbEntity
  8
0
100
AcDbLeader
  3
ISO-25
 40
25.0
 41
16.66666666666666
 76
     2
 10
1529.266362763165
 20
1534.159823554572
 30
0.0
 10
1455.179588924079
 20
1536.337125781704
 30
0.0
213
0.0
223
-12.5
233
0.0
1001
ACAD
1000
DSTYLE
1002
{
1070
    41
1040
25.0
1070
   147
1040
6.25
1070
    77
1070
     0
1070
    73
1070
     1
1070
    74
1070
     1
1070
   279
1070
     1
1070
   342
1005
DA
1002
}
  0
LEADER
  5
7D1
330
1F
100
AcDbEntity
  8
0
100
AcDbLeader
  3
ISO-25
 40
25.0
 41
16.66666666666666
 76
     2
 10
1503.11808721913
 20
1329.493470696517
 30
0.0
 10
1455.179588924079
 20
1359.975692460972
 30
0.0
213
0.0
223
-12.5
233
0.0
1001
ACAD
1000
DSTYLE
1002
{
1070
    41
1040
25.0
1070
   147
1040
6.25
1070
    77
1070
     0
1070
    73
1070
     1
1070
    74
1070
     1
1070
   279
1070
     1
1070
   342
1005
DA
1002
}
  0
LEADER
  5
7D2
330
1F
100
AcDbEntity
  8
0
100
AcDbLeader
  3
ISO-25
 40
25.0
 41
16.66666666666666
 76
     2
 10
1520.550265419942
 20
664.7710841833713
 30
0.0
 10
1472.611767124891
 20
695.2533059478264
 30
0.0
213
0.0
223
-12.5
233
0.0
1001
ACAD
1000
DSTYLE
1002
{
1070
    41
1040
25.0
1070
   147
1040
6.25
1070
    77
1070
     0
1070
    73
1070
     1
1070
    74
1070
     1
1070
   279
1070
     1
1070
   342
1005
DA
1002
}
  0
LEADER
  5
7D3
330
1F
100
AcDbEntity
  8
0
100
AcDbLeader
  3
ISO-25
 40
25.0
 41
16.66666666666666
 76
     2
 10
1992.251238541491
 20
1304.222656536914
 30
0.0
 10
1955.207859864765
 20
1341.236780275066
 30
0.0
213
0.0
223
-12.5
233
0.0
1001
ACAD
1000
DSTYLE
1002
{
1070
    41
1040
25.0
1070
   147
1040
6.25
1070
    77
1070
     0
1070
    73
1070
     1
1070
    74
1070
     1
1070
   279
1070
     1
1070
   342
1005
DA
1002
}
  0
LINE
  5
7E9
330
1F
100
AcDbEntity
  8
実形
100
AcDbLine
 10
1988.208050996714
 20
470.8988653841849
 30
0.0
 11
1988.208050996714
 21
470.8988653841852
 31
0.0
  0
LINE
  5
7EA
330
1F
100
AcDbEntity
  8
実形
100
AcDbLine
 10
2063.708050996714
 20
395.3988653841852
 30
0.0
 11
2287.708050996714
 21
395.3988653841852
 31
0.0
  0
LINE
  5
7EB
330
1F
100
AcDbEntity
  8
実形
100
AcDbLine
 10
2363.208050996714
 20
470.8988653841852
 30
0.0
 11
2363.208050996714
 21
470.8988653841852
 31
0.0
  0
LINE
  5
7EC
330
1F
100
AcDbEntity
  8
実形
100
AcDbLine
 10
2287.708050996714
 20
546.3988653841852
 30
0.0
 11
2063.708050996714
 21
546.3988653841852
 31
0.0
  0
LINE
  5
7ED
330
1F
100
AcDbEntity
  8
実形
100
AcDbLine
 10
2050.708050996714
 20
470.8988653841851
 30
0.0
 11
2050.708050996714
 21
470.8988653841852
 31
0.0
  0
LINE
  5
7EE
330
1F
100
AcDbEntity
  8
実形
100
AcDbLine
 10
2100.708050996713
 20
420.8988653841852
 30
0.0
 11
2250.708050996713
 21
420.8988653841852
 31
0.0
  0
LINE
  5
7EF
330
1F
100
AcDbEntity
  8
実形
100
AcDbLine
 10
2300.708050996714
 20
470.8988653841852
 30
0.0
 11
2300.708050996714
 21
470.8988653841851
 31
0.0
  0
LINE
  5
7F0
330
1F
100
AcDbEntity
  8
実形
100
AcDbLine
 10
2250.708050996713
 20
520.8988653841851
 30
0.0
 11
2100.708050996713
 21
520.8988653841851
 31
0.0
  0
ARC
  5
7F3
330
1F
100
AcDbEntity
  8
実形
100
AcDbCircle
 10
2287.708050996714
 20
470.8988653841852
 30
0.0
 40
75.5
100
AcDbArc
 50
0.0
 51
90.0
  0
ARC
  5
7F4
330
1F
100
AcDbEntity
  8
実形
100
AcDbCircle
 10
2287.708050996714
 20
470.8988653841852
 30
0.0
 40
75.5
100
AcDbArc
 50
270.0
 51
0.0
  0
ARC
  5
7F5
330
1F
100
AcDbEntity
  8
実形
100
AcDbCircle
 10
2063.708050996714
 20
470.8988653841852
 30
0.0
 40
75.5
100
AcDbArc
 50
180.0
 51
270.0
  0
ARC
  5
7F6
330
1F
100
AcDbEntity
  8
実形
100
AcDbCircle
 10
2063.708050996714
 20
470.8988653841852
 30
0.0
 40
75.5
100
AcDbArc
 50
90.0
 51
180.0000000000001
  0
LINE
  5
7F7
330
1F
100
AcDbEntity
  8
実形
100
AcDbLine
 10
2287.708050996714
 20
541.3988653841852
 30
0.0
 11
2063.708050996714
 21
541.3988653841852
 31
0.0
  0
ARC
  5
7F8
330
1F
100
AcDbEntity
  8
実形
100
AcDbCircle
 10
2287.708050996714
 20
470.8988653841852
 30
0.0
 40
70.5
100
AcDbArc
 50
0.0
 51
90.0
  0
ARC
  5
7F9
330
1F
100
AcDbEntity
  8
実形
100
AcDbCircle
 10
2287.708050996714
 20
470.8988653841852
 30
0.0
 40
70.5
100
AcDbArc
 50
270.0
 51
0.0
  0
LINE
  5
7FA
330
1F
100
AcDbEntity
  8
実形
100
AcDbLine
 10
2063.708050996714
 20
400.3988653841852
 30
0.0
 11
2287.708050996714
 21
400.3988653841852
 31
0.0
  0
ARC
  5
7FD
330
1F
100
AcDbEntity
  8
実形
100
AcDbCircle
 10
2063.708050996714
 20
470.8988653841852
 30
0.0
 40
70.5
100
AcDbArc
 50
180.0
 51
270.0
  0
ARC
  5
7FE
330
1F
100
AcDbEntity
  8
実形
100
AcDbCircle
 10
2063.708050996714
 20
470.8988653841852
 30
0.0
 40
70.5
100
AcDbArc
 50
90.0
 51
180.0000000000001
  0
ARC
  5
7FF
330
1F
100
AcDbEntity
  8
実形
100
AcDbCircle
 10
2250.708050996713
 20
470.8988653841851
 30
0.0
 40
50.0
100
AcDbArc
 50
0.0
 51
90.0
  0
ARC
  5
800
330
1F
100
AcDbEntity
  8
実形
100
AcDbCircle
 10
2250.708050996713
 20
470.8988653841852
 30
0.0
 40
50.0
100
AcDbArc
 50
270.0
 51
0.0
  0
ARC
  5
801
330
1F
100
AcDbEntity
  8
実形
100
AcDbCircle
 10
2100.708050996713
 20
470.8988653841852
 30
0.0
 40
50.0
100
AcDbArc
 50
180.0
 51
270.0
  0
ARC
  5
802
330
1F
100
AcDbEntity
  8
実形
100
AcDbCircle
 10
2100.708050996713
 20
470.8988653841851
 30
0.0
 40
50.0
100
AcDbArc
 50
89.99999999999998
 51
180.0
  0
CIRCLE
  5
803
330
1F
100
AcDbEntity
  8
実形
100
AcDbCircle
 10
2015.708050996714
 20
470.8988653841852
 30
0.0
 40
8.966055913162964
  0
CIRCLE
  5
804
330
1F
100
AcDbEntity
  8
実形
100
AcDbCircle
 10
2335.708050996714
 20
470.8988653841852
 30
0.0
 40
8.966055913162964
  0
LINE
  5
808
330
1F
100
AcDbEntity
  8
センター
 48
0.5
100
AcDbLine
 10
1964.851582235334
 20
470.8988653841852
 30
0.0
 11
2386.564519758094
 21
470.8988653841852
 31
0.0
  0
LINE
  5
809
330
1F
100
AcDbEntity
  8
センター
 48
0.5
100
AcDbLine
 10
2175.708050996714
 20
577.6433797631238
 30
0.0
 11
2175.708050996714
 21
364.1543510052466
 31
0.0
  0
DIMENSION
  5
80A
330
1F
100
AcDbEntity
  8
寸法
100
AcDbDimension
  2
*D19
 10
2300.708050996714
 20
619.7827626574945
 30
0.0
 11
2175.708050996714
 21
638.5327626574945
 31
0.0
 70
    32
  1
50
 71
     5
 42
250.0
  3
ISO-25
100
AcDbAlignedDimension
 13
2050.708050996714
 23
520.8988653841852
 33
0.0
 14
2300.708050996714
 24
520.8988653841852
 34
0.0
100
AcDbRotatedDimension
1001
ACAD
1000
DSTYLE
1002
{
1070
    41
1040
25.0
1070
   371
1070
    18
1070
   372
1070
    18
1002
}
  0
DIMENSION
  5
824
330
1F
100
AcDbEntity
  8
寸法
100
AcDbDimension
  2
*D20
 10
2015.708050996714
 20
670.8176021227755
 30
0.0
 11
2175.708050996714
 21
689.5676021227755
 31
0.0
 70
    32
  1
64
 71
     5
 42
320.0
  3
ISO-25
100
AcDbAlignedDimension
 13
2335.708050996714
 23
520.8988653841852
 33
0.0
 14
2015.708050996714
 24
520.8988653841852
 34
0.0
100
AcDbRotatedDimension
1001
ACAD
1000
DSTYLE
1002
{
1070
    41
1040
25.0
1070
   371
1070
    18
1070
   372
1070
    18
1002
}
  0
DIMENSION
  5
83A
330
1F
100
AcDbEntity
  8
寸法
100
AcDbDimension
  2
*D21
 10
2363.208050996714
 20
718.0248287471658
 30
0.0
 11
2175.708050996714
 21
736.7748287471658
 31
0.0
 70
    32
  1
75
 71
     5
 42
375.0
  3
ISO-25
100
AcDbAlignedDimension
 13
1988.208050996713
 23
520.8988653841852
 33
0.0
 14
2363.208050996714
 24
520.8988653841852
 34
0.0
100
AcDbRotatedDimension
1001
ACAD
1000
DSTYLE
1002
{
1070
    41
1040
25.0
1070
   371
1070
    18
1070
   372
1070
    18
1002
}
  0
DIMENSION
  5
850
330
1F
100
AcDbEntity
  8
寸法
100
AcDbDimension
  2
*D22
 10
2464.661063767306
 20
420.8988653841851
 30
0.0
 11
2445.911063767306
 21
470.8988653841855
 31
0.0
 70
    32
  1
20
 71
     5
 42
100.0
  3
ISO-25
100
AcDbAlignedDimension
 13
2363.208050996714
 23
520.8988653841852
 33
0.0
 14
2363.208050996714
 24
420.8988653841852
 34
0.0
 50
90.0
100
AcDbRotatedDimension
1001
ACAD
1000
DSTYLE
1002
{
1070
    41
1040
25.0
1070
   371
1070
    18
1070
   372
1070
    18
1002
}
  0
DIMENSION
  5
85D
330
1F
100
AcDbEntity
  8
寸法
100
AcDbDimension
  2
*D23
 10
2510.628729056416
 20
395.3988653841852
 30
0.0
 11
2491.878729056416
 21
470.8988653841855
 31
0.0
 70
    32
  1
31
 71
     5
 42
151.0
  3
ISO-25
100
AcDbAlignedDimension
 13
2363.208050996714
 23
546.3988653841852
 33
0.0
 14
2363.208050996714
 24
395.3988653841852
 34
0.0
 50
90.0
100
AcDbRotatedDimension
1001
ACAD
1000
DSTYLE
1002
{
1070
    41
1040
25.0
1070
   371
1070
    18
1070
   372
1070
    18
1002
}
  0
TEXT
  5
8C9
330
1F
100
AcDbEntity
  8
0
100
AcDbText
 10
249.2632881086038
 20
83.52862940911927
 30
0.0
 40
30.0
  1
※実寸には製造上の誤差が多少生ずる場合があります。シンクの穴あけ加工は現物合わせにてお願いします。
100
AcDbText
  0
TEXT
  5
8CA
330
1F
100
AcDbEntity
  8
0
100
AcDbText
 10
2018.540869886084
 20
829.0394772291765
 30
0.0
 40
30.0
  1
オーバーフロー詳細
100
AcDbText
  0
LINE
  5
8CB
330
1F
100
AcDbEntity
  8
実形
100
AcDbLine
 10
2003.468142364335
 20
817.7438588998102
 30
0.0
 11
2353.909109337564
 21
817.7438588998102
 31
0.0
  0
LINE
  5
8CE
330
1F
100
AcDbEntity
  8
実形
100
AcDbLine
 10
2003.468142364335
 20
810.7438588998101
 30
0.0
 11
2353.909109337564
 21
810.7438588998101
 31
0.0
  0
TEXT
  5
979
330
1F
100
AcDbEntity
  8
補助
100
AcDbText
 10
2086.666666666667
 20
84.0
 30
0.0
 40
35.0
  1
尺度
 72
     4
 11
2124.0
 21
101.5
 31
0.0
100
AcDbText
  0
TEXT
  5
97A
330
1F
100
AcDbEntity
  8
補助
100
AcDbText
 10
2086.666666666667
 20
149.0
 30
0.0
 40
35.0
  1
品番
 72
     4
 11
2124.0
 21
166.5
 31
0.0
100
AcDbText
  0
LINE
  5
97B
330
1F
100
AcDbEntity
  8
補助
100
AcDbLine
 10
2064.0
 20
69.0
 30
0.0
 11
2784.0
 21
69.0
 31
0.0
  0
LINE
  5
97C
330
1F
100
AcDbEntity
  8
補助
100
AcDbLine
 10
2064.0
 20
199.0
 30
0.0
 11
2784.0
 21
199.0
 31
0.0
  0
LINE
  5
97D
330
1F
100
AcDbEntity
  8
補助
100
AcDbLine
 10
2064.0
 20
134.0
 30
0.0
 11
2784.0
 21
134.0
 31
0.0
  0
LINE
  5
97E
330
1F
100
AcDbEntity
  8
補助
100
AcDbLine
 10
2064.0
 20
4.0
 30
0.0
 11
2064.0
 21
199.0
 31
0.0
  0
TEXT
  5
97F
330
1F
100
AcDbEntity
  8
0
100
AcDbText
 10
2281.0
 20
149.0
 30
0.0
 40
35.0
  1
CI 930-410(OF)
 72
     4
 11
2484.0
 21
166.5
 31
0.0
100
AcDbText
  0
TEXT
  5
980
330
1F
100
AcDbEntity
  8
補助
100
AcDbText
 10
2300.255774665348
 20
16.49999999999999
 30
0.0
 40
40.0
  1
中外交易株式会社
 72
     4
 11
2488.255774665347
 21
36.5
 31
0.0
100
AcDbText
  0
LINE
  5
981
330
1F
100
AcDbEntity
  8
補助
100
AcDbLine
 10
2184.0
 20
69.0
 30
0.0
 11
2784.0
 21
69.0
 31
0.0
  0
HATCH
  5
982
330
1F
100
AcDbEntity
  8
補助
100
AcDbHatch
 10
0.0
 20
0.0
 30
0.0
210
0.0
220
0.0
230
1.0
  2
SOLID
 70
     1
 71
     1
 91
        3
 92
        1
 93
        4
 72
     2
 10
2257.166198313996
 20
36.5
 40
20.0
 50
11.64772366707381
 51
342.6561058784905
 73
     1
 72
     1
 10
2276.256852341323
 20
30.53787547858514
 11
2252.166198313995
 21
30.53787547858519
 72
     1
 10
2252.166198313995
 20
30.53787547858519
 11
2252.166198313995
 21
40.53787547858519
 72
     1
 10
2252.166198313995
 20
40.53787547858519
 11
2276.75434681301
 21
40.53787547858519
 97
        4
330
98F
330
98D
330
98C
330
98B
 92
        1
 93
        4
 72
     2
 10
2188.255774665348
 20
36.5
 40
20.0
 50
11.64772366707381
 51
342.6561058784905
 73
     1
 72
     1
 10
2207.346428692676
 20
30.53787547858514
 11
2183.255774665347
 21
30.53787547858519
 72
     1
 10
2183.255774665347
 20
30.53787547858519
 11
2183.255774665347
 21
40.53787547858519
 72
     1
 10
2183.255774665347
 20
40.53787547858519
 11
2207.843923164362
 21
40.53787547858519
 97
        4
330
98E
330
985
330
984
330
983
 92
        1
 93
        5
 72
     1
 10
2245.64189404294
 20
56.5
 11
2210.641894042939
 21
56.5
 72
     1
 10
2210.641894042939
 20
56.5
 11
2210.641894042939
 21
16.5
 72
     1
 10
2210.641894042939
 20
16.5
 11
2245.64189404294
 21
16.5
 72
     1
 10
2245.64189404294
 20
16.5
 11
2210.641894042939
 21
36.5
 72
     1
 10
2210.641894042939
 20
36.5
 11
2245.64189404294
 21
56.5
 97
        5
330
98A
330
986
330
987
330
988
330
989
 75
     0
 76
     1
 98
        1
 10
-60.0
 20
0.0
  0
LINE
  5
983
102
{ACAD_REACTORS
330
982
102
}
330
1F
100
AcDbEntity
  8
補助
370
     5
100
AcDbLine
 10
2207.843923164362
 20
40.53787547858519
 30
0.0
 11
2183.255774665347
 21
40.53787547858519
 31
0.0
  0
LINE
  5
984
102
{ACAD_REACTORS
330
982
102
}
330
1F
100
AcDbEntity
  8
補助
370
     5
100
AcDbLine
 10
2183.255774665347
 20
40.53787547858519
 30
0.0
 11
2183.255774665347
 21
30.53787547858519
 31
0.0
  0
LINE
  5
985
102
{ACAD_REACTORS
330
982
102
}
330
1F
100
AcDbEntity
  8
補助
370
     5
100
AcDbLine
 10
2183.255774665347
 20
30.53787547858519
 30
0.0
 11
2207.346428692676
 21
30.53787547858514
 31
0.0
  0
LINE
  5
986
102
{ACAD_REACTORS
330
982
102
}
330
1F
100
AcDbEntity
  8
補助
370
     5
100
AcDbLine
 10
2210.641894042939
 20
56.5
 30
0.0
 11
2210.641894042939
 21
16.5
 31
0.0
  0
LINE
  5
987
102
{ACAD_REACTORS
330
982
102
}
330
1F
100
AcDbEntity
  8
補助
370
     5
100
AcDbLine
 10
2210.641894042939
 20
16.5
 30
0.0
 11
2245.64189404294
 21
16.5
 31
0.0
  0
LINE
  5
988
102
{ACAD_REACTORS
330
982
102
}
330
1F
100
AcDbEntity
  8
補助
370
     5
100
AcDbLine
 10
2245.64189404294
 20
16.5
 30
0.0
 11
2210.641894042939
 21
36.5
 31
0.0
  0
LINE
  5
989
102
{ACAD_REACTORS
330
982
102
}
330
1F
100
AcDbEntity
  8
補助
370
     5
100
AcDbLine
 10
2210.641894042939
 20
36.5
 30
0.0
 11
2245.64189404294
 21
56.5
 31
0.0
  0
LINE
  5
98A
102
{ACAD_REACTORS
330
982
102
}
330
1F
100
AcDbEntity
  8
補助
370
     5
100
AcDbLine
 10
2245.64189404294
 20
56.5
 30
0.0
 11
2210.641894042939
 21
56.5
 31
0.0
  0
LINE
  5
98B
102
{ACAD_REACTORS
330
982
102
}
330
1F
100
AcDbEntity
  8
補助
370
     5
100
AcDbLine
 10
2276.75434681301
 20
40.53787547858519
 30
0.0
 11
2252.166198313995
 21
40.53787547858519
 31
0.0
  0
LINE
  5
98C
102
{ACAD_REACTORS
330
982
102
}
330
1F
100
AcDbEntity
  8
補助
370
     5
100
AcDbLine
 10
2252.166198313995
 20
40.53787547858519
 30
0.0
 11
2252.166198313995
 21
30.53787547858519
 31
0.0
  0
LINE
  5
98D
102
{ACAD_REACTORS
330
982
102
}
330
1F
100
AcDbEntity
  8
補助
370
     5
100
AcDbLine
 10
2252.166198313995
 20
30.53787547858519
 30
0.0
 11
2276.256852341323
 21
30.53787547858514
 31
0.0
  0
ARC
  5
98E
102
{ACAD_REACTORS
330
982
102
}
330
1F
100
AcDbEntity
  8
補助
370
     5
100
AcDbCircle
 10
2188.255774665348
 20
36.5
 30
0.0
 40
20.0
100
AcDbArc
 50
11.64772366707381
 51
342.6561058784905
  0
ARC
  5
98F
102
{ACAD_REACTORS
330
982
102
}
330
1F
100
AcDbEntity
  8
補助
370
     5
100
AcDbCircle
 10
2257.166198313996
 20
36.5
 30
0.0
 40
20.0
100
AcDbArc
 50
11.64772366707381
 51
342.6561058784905
  0
LINE
  5
990
330
1F
100
AcDbEntity
  8
補助
100
AcDbLine
 10
2184.0
 20
69.0
 30
0.0
 11
2184.0
 21
199.0
 31
0.0
  0
TEXT
  5
991
330
1F
100
AcDbEntity
  8
0
100
AcDbText
 10
2430.916666666667
 20
84.0
 30
0.0
 40
35.0
  1
1：10
 72
     4
 11
2484.0
 21
101.5
 31
0.0
100
AcDbText
  0
LINE
  5
992
330
1F
100
AcDbEntity
  8
補助
100
AcDbLine
 10
2784.0
 20
69.0
 30
0.0
 11
2784.0
 21
134.0
 31
0.0
  0
LINE
  5
993
330
1F
100
AcDbEntity
  8
補助
100
AcDbLine
 10
2784.0
 20
4.0
 30
0.0
 11
2784.0
 21
69.0
 31
0.0
  0
LINE
  5
994
330
1F
100
AcDbEntity
  8
補助
100
AcDbLine
 10
2784.0
 20
134.0
 30
0.0
 11
2784.0
 21
199.0
 31
0.0
  0
LINE
  5
A15
330
1F
100
AcDbEntity
  8
実形
100
AcDbLine
 10
1818.402202165556
 20
1705.021773967338
 30
0.0
 11
1976.932475825762
 21
1705.021773967338
 31
0.0
  0
LINE
  5
A16
330
1F
100
AcDbEntity
  8
実形
100
AcDbLine
 10
2006.698892093242
 20
1678.758144210117
 30
0.0
 11
2018.402202165557
 21
1585.521773967338
 31
0.0
  0
LINE
  5
A17
330
1F
100
AcDbEntity
  8
実形
100
AcDbLine
 10
2018.402202165557
 20
1404.521773967338
 30
0.0
 11
2006.698892093241
 21
1311.285403724558
 31
0.0
  0
LINE
  5
A18
330
1F
100
AcDbEntity
  8
実形
100
AcDbLine
 10
1976.932475825761
 20
1285.021773967338
 30
0.0
 11
1818.402202165556
 21
1285.021773967338
 31
0.0
  0
ARC
  5
A2D
330
1F
100
AcDbEntity
  8
実形
100
AcDbCircle
 10
691.5949661709994
 20
1610.300773922909
 30
0.0
 40
95.0
100
AcDbArc
 50
94.43335078163185
 51
175.3434670106002
  0
ARC
  5
A2E
330
1F
100
AcDbEntity
  8
実形
100
AcDbCircle
 10
691.5949661709994
 20
1610.300773922909
 30
0.0
 40
80.0
100
AcDbArc
 50
94.43335078163185
 51
175.3434670106002
  0
ARC
  5
A2F
330
1F
100
AcDbEntity
  8
実形
100
AcDbCircle
 10
1071.907918270049
 20
-3294.978225121457
 30
0.0
 40
5000.0
100
AcDbArc
 50
85.56664921836812
 51
94.43335078163185
  0
ARC
  5
A30
330
1F
100
AcDbEntity
  8
実形
100
AcDbCircle
 10
1071.907918270049
 20
-3294.978225121457
 30
0.0
 40
5015.0
100
AcDbArc
 50
85.56664921836812
 51
94.43335078163185
  0
ARC
  5
A31
330
1F
100
AcDbEntity
  8
実形
100
AcDbCircle
 10
1452.2208703691
 20
1610.300773922909
 30
0.0
 40
95.0
100
AcDbArc
 50
4.656532989399734
 51
85.56664921836812
  0
ARC
  5
A32
330
1F
100
AcDbEntity
  8
実形
100
AcDbCircle
 10
1452.2208703691
 20
1610.300773922909
 30
0.0
 40
80.0
100
AcDbArc
 50
4.656532989399734
 51
85.56664921836812
  0
ARC
  5
A33
330
1F
100
AcDbEntity
  8
実形
100
AcDbCircle
 10
36.90791827004978
 20
1495.021774878543
 30
0.0
 40
1515.0
100
AcDbArc
 50
355.3434670106003
 51
4.656532989399734
  0
ARC
  5
A34
330
1F
100
AcDbEntity
  8
実形
100
AcDbCircle
 10
36.90791827004978
 20
1495.021774878543
 30
0.0
 40
1500.0
100
AcDbArc
 50
355.3434670106003
 51
4.656532989399734
  0
ARC
  5
A35
330
1F
100
AcDbEntity
  8
実形
100
AcDbCircle
 10
1071.907918270049
 20
6285.021774878543
 30
0.0
 40
5015.0
100
AcDbArc
 50
265.5666492183681
 51
274.4333507816319
  0
ARC
  5
A36
330
1F
100
AcDbEntity
  8
実形
100
AcDbCircle
 10
1071.907918270049
 20
6285.021774878543
 30
0.0
 40
5000.0
100
AcDbArc
 50
265.5666492183681
 51
274.4333507816319
  0
ARC
  5
A37
330
1F
100
AcDbEntity
  8
実形
100
AcDbCircle
 10
1452.2208703691
 20
1379.742775834176
 30
0.0
 40
95.0
100
AcDbArc
 50
274.4333507816319
 51
355.3434670106003
  0
ARC
  5
A38
330
1F
100
AcDbEntity
  8
実形
100
AcDbCircle
 10
1452.2208703691
 20
1379.742775834176
 30
0.0
 40
80.0
100
AcDbArc
 50
274.4333507816319
 51
355.3434670106003
  0
ARC
  5
A39
330
1F
100
AcDbEntity
  8
実形
100
AcDbCircle
 10
691.5949661709994
 20
1379.742775834176
 30
0.0
 40
95.0
100
AcDbArc
 50
184.6565329893997
 51
265.5666492183681
  0
ARC
  5
A3A
330
1F
100
AcDbEntity
  8
実形
100
AcDbCircle
 10
691.5949661709994
 20
1379.742775834176
 30
0.0
 40
80.0
100
AcDbArc
 50
184.6565329893997
 51
265.5666492183681
  0
ARC
  5
A3B
330
1F
100
AcDbEntity
  8
実形
100
AcDbCircle
 10
2106.90791827005
 20
1495.021774878543
 30
0.0
 40
1515.0
100
AcDbArc
 50
175.3434670106002
 51
184.6565329893997
  0
ARC
  5
A3C
330
1F
100
AcDbEntity
  8
実形
100
AcDbCircle
 10
2106.90791827005
 20
1495.021774878543
 30
0.0
 40
1500.0
100
AcDbArc
 50
175.3434670106002
 51
184.6565329893997
  0
ARC
  5
ABE
330
1F
100
AcDbEntity
  8
実形
100
AcDbCircle
 10
1976.932475825762
 20
1675.021773967338
 30
0.0
 40
30.0
100
AcDbArc
 50
7.154519837289512
 51
90.0
  0
ARC
  5
ABF
330
1F
100
AcDbEntity
  8
実形
100
AcDbCircle
 10
1976.932475825761
 20
1315.021773967338
 30
0.0
 40
30.0
100
AcDbArc
 50
270.0
 51
352.8454801627104
  0
LINE
  5
BF1
330
1F
100
AcDbEntity
  8
実形
100
AcDbLine
 10
517.044044534922
 20
835.0217739673379
 30
0.0
 11
396.8398136637543
 21
835.021773967338
 31
0.0
  0
LINE
  5
BF2
330
1F
100
AcDbEntity
  8
実形
100
AcDbLine
 10
517.044044534922
 20
635.021773967338
 30
0.0
 11
396.8398136637543
 21
635.0217739673381
 31
0.0
  0
LINE
  5
BF3
330
1F
100
AcDbEntity
  8
実形
100
AcDbLine
 10
517.0440445349221
 20
625.021773967338
 30
0.0
 11
463.8398136637541
 21
625.021773967338
 31
0.0
  0
TEXT
  5
BF4
330
1F
100
AcDbEntity
  8
寸法
 62
     0
370
    18
100
AcDbText
 10
388.0355363013514
 20
702.8290321696822
 30
0.0
 40
25.0
  1
200
 50
90.0
100
AcDbText
  0
LINE
  5
BF5
330
1F
100
AcDbEntity
  8
実形
100
AcDbLine
 10
396.8398136637543
 20
835.021773967338
 30
0.0
 11
396.8398136637543
 21
635.021773967338
 31
0.0
  0
TEXT
  5
BF6
330
1F
100
AcDbEntity
  8
寸法
 62
     0
370
    18
100
AcDbText
 10
395.3852852338485
 20
833.4216833570472
 30
0.0
 40
3.0
  1
●
100
AcDbText
  0
TEXT
  5
BF7
330
1F
100
AcDbEntity
  8
寸法
 62
     0
370
    18
100
AcDbText
 10
395.4552420544449
 20
633.4921174391629
 30
0.0
 40
3.0
  1
●
100
AcDbText
  0
TEXT
  5
BF8
330
1F
100
AcDbEntity
  8
寸法
 62
     0
370
    18
100
AcDbText
 10
444.3781726225518
 20
639.2890050771166
 30
0.0
 40
25.0
  1
15
 50
90.0
100
AcDbText
  0
LINE
  5
BF9
330
1F
100
AcDbEntity
  8
実形
 62
     0
100
AcDbLine
 10
517.044044534922
 20
650.0217739673379
 30
0.0
 11
463.8398136637541
 21
650.0217739673378
 31
0.0
  0
LINE
  5
BFA
330
1F
100
AcDbEntity
  8
実形
 62
     0
100
AcDbLine
 10
463.8398136637541
 20
650.0217739673376
 30
0.0
 11
463.8398136637541
 21
635.021773967338
 31
0.0
  0
TEXT
  5
BFB
330
1F
100
AcDbEntity
  8
寸法
 62
     0
370
    18
100
AcDbText
 10
462.0483495930893
 20
633.0743852584162
 30
0.0
 40
4.0
  1
●
100
AcDbText
  0
TEXT
  5
BFC
330
1F
100
AcDbEntity
  8
寸法
 62
     0
370
    18
100
AcDbText
 10
461.9419025493753
 20
647.8201446626788
 30
0.0
 40
4.0
  1
●
100
AcDbText
  0
LINE
  5
BFD
330
1F
100
AcDbEntity
  8
実形
100
AcDbLine
 10
463.8398136637541
 20
635.021773967338
 30
0.0
 11
463.8398136637541
 21
625.021773967338
 31
0.0
  0
TEXT
  5
BFE
330
1F
100
AcDbEntity
  8
寸法
 62
     0
370
    18
100
AcDbText
 10
462.0141146140176
 20
623.2805164229173
 30
0.0
 40
4.0
  1
●
100
AcDbText
  0
TEXT
  5
BFF
330
1F
100
AcDbEntity
  8
寸法
 62
     0
370
    18
100
AcDbText
 10
443.9594478185575
 20
603.6723986503393
 30
0.0
 40
25.0
  1
7
 50
90.0
100
AcDbText
  0
TEXT
  5
C12
330
1F
100
AcDbEntity
  8
寸法
370
    18
100
AcDbText
 10
1962.856447736219
 20
1144.24204367899
 30
0.0
 40
25.0
  1
15
100
AcDbText
  0
LINE
  5
C13
330
1F
100
AcDbEntity
  8
実形
100
AcDbLine
 10
1818.402202165556
 20
1205.021773967338
 30
0.0
 11
1818.402202165556
 21
1085.021773967338
 31
0.0
  0
LINE
  5
C14
330
1F
100
AcDbEntity
  8
実形
100
AcDbLine
 10
2018.402202165557
 20
1205.021773967338
 30
0.0
 11
2018.402202165556
 21
1085.021773967338
 31
0.0
  0
LINE
  5
C15
330
1F
100
AcDbEntity
  8
実形
100
AcDbLine
 10
2028.402202165557
 20
1205.021773967338
 30
0.0
 11
2028.402202165557
 21
1138.828017448897
 31
0.0
  0
LINE
  5
C16
330
1F
100
AcDbEntity
  8
実形
100
AcDbLine
 10
2003.402202165557
 20
1205.021773967338
 30
0.0
 11
2003.402202165556
 21
1138.828017448897
 31
0.0
  0
LINE
  5
C17
330
1F
100
AcDbEntity
  8
実形
100
AcDbLine
 10
1818.402202165557
 20
1085.021773967338
 30
0.0
 11
2018.402202165556
 21
1085.021773967338
 31
0.0
  0
LINE
  5
C18
330
1F
100
AcDbEntity
  8
実形
100
AcDbLine
 10
2003.402202165556
 20
1138.828017448897
 30
0.0
 11
2028.402202165557
 21
1138.828017448897
 31
0.0
  0
TEXT
  5
C19
330
1F
100
AcDbEntity
  8
寸法
370
    18
100
AcDbText
 10
1892.635908944846
 20
1092.70396237438
 30
0.0
 40
25.0
  1
200
100
AcDbText
  0
TEXT
  5
C1A
330
1F
100
AcDbEntity
  8
寸法
370
    18
100
AcDbText
 10
2036.185535576379
 20
1142.753091061322
 30
0.0
 40
25.0
  1
7
100
AcDbText
  0
TEXT
  5
C1B
330
1F
100
AcDbEntity
  8
寸法
370
    18
100
AcDbText
 10
1816.588698510718
 20
1083.029216189094
 30
0.0
 40
4.0
  1
●
100
AcDbText
  0
TEXT
  5
C1C
330
1F
100
AcDbEntity
  8
寸法
370
    18
100
AcDbText
 10
2016.502227478645
 20
1083.114065716713
 30
0.0
 40
4.0
  1
●
100
AcDbText
  0
TEXT
  5
C1D
330
1F
100
AcDbEntity
  8
寸法
370
    18
100
AcDbText
 10
2026.534925327885
 20
1136.871317620339
 30
0.0
 40
4.0
  1
●
100
AcDbText
  0
TEXT
  5
C1E
330
1F
100
AcDbEntity
  8
寸法
370
    18
100
AcDbText
 10
2001.550914542714
 20
1136.794446637352
 30
0.0
 40
4.0
  1
●
100
AcDbText
  0
TEXT
  5
C1F
330
1F
100
AcDbEntity
  8
寸法
370
    18
100
AcDbText
 10
2016.345858296855
 20
1136.686194983796
 30
0.0
 40
4.0
  1
●
100
AcDbText
  0
LINE
  5
D04
330
1F
100
AcDbEntity
  8
補助
100
AcDbLine
 10
2784.0
 20
1959.0
 30
0.0
 11
2019.387286519283
 21
1959.000000000001
 31
0.0
  0
LINE
  5
D05
330
1F
100
AcDbEntity
  8
補助
100
AcDbLine
 10
2784.0
 20
1894.0
 30
0.0
 11
2019.387286519283
 21
1894.0
 31
0.0
  0
LINE
  5
D06
330
1F
100
AcDbEntity
  8
補助
100
AcDbLine
 10
2202.547653420927
 20
1894.0
 30
0.0
 11
2202.547653420927
 21
2024.0
 31
0.0
  0
LINE
  5
D07
330
1F
100
AcDbEntity
  8
補助
100
AcDbLine
 10
2019.387286519283
 20
1894.0
 30
0.0
 11
2019.387286519283
 21
2024.0
 31
0.0
  0
TEXT
  5
D08
330
1F
100
AcDbEntity
  8
補助
100
AcDbText
 10
2050.295698850121
 20
1976.328571428572
 30
0.0
 40
30.0
  1
部品名
  7
明朝
 72
     4
 11
2116.124270278692
 21
1991.5
 31
0.0
100
AcDbText
  0
TEXT
  5
D09
330
1F
100
AcDbEntity
  8
補助
100
AcDbText
 10
2627.614285714286
 20
1976.071428571429
 30
0.0
 40
30.0
  1
厚さ
  7
明朝
 72
     4
 11
2671.5
 21
1991.5
 31
0.0
100
AcDbText
  0
LINE
  5
D0A
330
1F
100
AcDbEntity
  8
補助
100
AcDbLine
 10
2559.0
 20
1894.0
 30
0.0
 11
2559.0
 21
2024.0
 31
0.0
  0
TEXT
  5
D0B
330
1F
100
AcDbEntity
  8
補助
100
AcDbText
 10
2338.490869919937
 20
1975.947979478155
 30
0.0
 40
30.0
  1
材質
  7
明朝
 72
     4
 11
2382.376584205651
 21
1991.119408049583
 31
0.0
100
AcDbText
  0
TEXT
  5
D0C
330
1F
100
AcDbEntity
  8
実形
100
AcDbText
 10
2048.227810657788
 20
1910.557142857143
 30
0.0
 40
30.0
  1
ボウル
  7
明朝
 72
     4
 11
2114.056382086359
 21
1926.5
 31
0.0
100
AcDbText
  0
TEXT
  5
D0D
330
1F
100
AcDbEntity
  8
実形
100
AcDbText
 10
2594.700000000001
 20
1911.842857142857
 30
0.0
 40
30.0
  1
0.6ｍｍ
  7
明朝
 72
     4
 11
2671.500000000001
 21
1926.5
 31
0.0
100
AcDbText
  0
TEXT
  5
D0E
330
1F
100
AcDbEntity
  8
実形
100
AcDbText
 10
2261.016869107866
 20
1910.728571428572
 30
0.0
 40
30.0
  1
SUS304（BA）
  7
明朝
 72
     4
 11
2392.674011965008
 21
1926.5
 31
0.0
100
AcDbText
  0
LINE
  5
D12
330
1F
100
AcDbEntity
  8
補助
100
AcDbLine
 10
114.0
 20
2024.0
 30
0.0
 11
114.0
 21
4.0
 31
0.0
  0
VIEWPORT
  5
2E
102
{ACAD_XDICTIONARY
360
D4D
102
}
330
1B
100
AcDbEntity
 67
     1
  8
0
100
AcDbViewport
 10
144.7270812988281
 20
101.2295806407928
 30
0.0
 40
411.6736216682419
 41
222.1517806396485
 68
     1
 69
     1
 12
144.7270812988281
 22
101.2295806407928
 13
0.0
 23
0.0
 14
10.0
 24
10.0
 15
10.0
 25
10.0
 16
0.0
 26
0.0
 36
1.0
 17
0.0
 27
0.0
 37
0.0
 42
50.0
 43
0.0
 44
0.0
 45
222.1517806396485
 50
0.0
 51
0.0
 72
   100
 90
    32800
  1

281
     0
 71
     1
 74
     0
110
0.0
120
0.0
130
0.0
111
1.0
121
0.0
131
0.0
112
0.0
122
1.0
132
0.0
 79
     0
146
0.0
  0
VIEWPORT
  5
30
102
{ACAD_XDICTIONARY
360
D4F
102
}
330
1B
100
AcDbEntity
 67
     1
  8
0
100
AcDbViewport
 10
139.2237563133239
 20
101.2295821905136
 30
0.0
 40
222.7580101013184
 41
161.9673315048218
 68
     2
 69
     2
 12
210.0
 22
148.5
 13
0.0
 23
0.0
 14
10.0
 24
10.0
 15
10.0
 25
10.0
 16
0.0
 26
0.0
 36
1.0
 17
0.0
 27
0.0
 37
0.0
 42
50.0
 43
0.0
 44
0.0
 45
309.0686705647124
 50
0.0
 51
0.0
 72
   100
 90
    32864
  1

281
     0
 71
     1
 74
     0
110
0.0
120
0.0
130
0.0
111
1.0
121
0.0
131
0.0
112
0.0
122
1.0
132
0.0
 79
     0
146
0.0
  0
ENDSEC
  0
SECTION
  2
OBJECTS
  0
DICTIONARY
  5
C
330
0
100
AcDbDictionary
281
     1
  3
ACAD_COLOR
350
ACF
  3
ACAD_GROUP
350
D
  3
ACAD_LAYOUT
350
1A
  3
ACAD_MATERIAL
350
ACE
  3
ACAD_MLINESTYLE
350
17
  3
ACAD_PLOTSETTINGS
350
19
  3
ACAD_PLOTSTYLENAME
350
E
  3
ACAD_TABLESTYLE
350
AD0
  3
AcadDim
350
124
  3
ACDBHEADERROUNDTRIPXREC
350
D46
  3
AcDbVariableDictionary
350
AD7
  0
DICTIONARY
  5
BDC
330
2
100
AcDbDictionary
280
     1
281
     1
  3
ACAD_LAYERFILTERS
360
CD6
  3
ACAD_LAYERSTATES
360
BDD
  3
ACLYDICTIONARY
360
CD5
  0
DICTIONARY
  5
D10
330
1F
100
AcDbDictionary
280
     1
281
     1
  3
ACAD_SORTENTS
360
D11
  0
DICTIONARY
  5
D4D
330
2E
100
AcDbDictionary
280
     1
281
     1
  3
ACAD_XREC_ROUNDTRIP
360
D4E
  0
DICTIONARY
  5
D4F
330
30
100
AcDbDictionary
280
     1
281
     1
  3
ACAD_XREC_ROUNDTRIP
360
D50
  0
DICTIONARY
  5
ACF
102
{ACAD_REACTORS
330
C
102
}
330
C
100
AcDbDictionary
281
     1
  0
DICTIONARY
  5
D
102
{ACAD_REACTORS
330
C
102
}
330
C
100
AcDbDictionary
281
     1
  0
DICTIONARY
  5
1A
102
{ACAD_REACTORS
330
C
102
}
330
C
100
AcDbDictionary
281
     1
  3
Model
350
22
  3
ﾚｲｱｳﾄ1
350
1E
  3
ﾚｲｱｳﾄ2
350
26
  0
DICTIONARY
  5
ACE
102
{ACAD_REACTORS
330
C
102
}
330
C
100
AcDbDictionary
281
     1
  0
DICTIONARY
  5
17
102
{ACAD_REACTORS
330
C
102
}
330
C
100
AcDbDictionary
281
     1
  3
Standard
350
18
  0
DICTIONARY
  5
19
102
{ACAD_REACTORS
330
C
102
}
330
C
100
AcDbDictionary
281
     1
  0
ACDBDICTIONARYWDFLT
  5
E
102
{ACAD_REACTORS
330
C
102
}
330
C
100
AcDbDictionary
281
     1
  3
Normal
350
F
100
AcDbDictionaryWithDefault
340
F
  0
DICTIONARY
  5
AD0
102
{ACAD_REACTORS
330
C
102
}
330
C
100
AcDbDictionary
281
     1
  3
Standard
350
AD1
  0
XRECORD
  5
124
102
{ACAD_REACTORS
330
C
102
}
330
C
100
AcDbXrecord
280
     1
 90
   990106
  3

 60
     0
 61
     0
 62
     1
 63
     3
 64
     0
 65
     0
 66
     0
 67
     3
 68
     1
 69
     0
 70
     0
 71
     0
 72
     0
 40
30.0
170
     0
  0
DICTIONARY
  5
D46
102
{ACAD_REACTORS
330
C
102
}
330
C
100
AcDbDictionary
281
     1
  0
DICTIONARY
  5
AD7
102
{ACAD_REACTORS
330
C
102
}
330
C
100
AcDbDictionary
281
     1
  3
CTABLESTYLE
350
AD8
  3
DIMASSOC
350
D43
  3
PROJECTNAME
350
D44
  0
DICTIONARY
  5
CD6
102
{ACAD_REACTORS
330
BDC
102
}
330
BDC
100
AcDbDictionary
281
     1
  0
DICTIONARY
  5
BDD
102
{ACAD_REACTORS
330
BDC
102
}
330
BDC
100
AcDbDictionary
281
     1
  0
DICTIONARY
  5
CD5
102
{ACAD_REACTORS
330
BDC
102
}
330
BDC
100
AcDbDictionary
281
     1
1001
ACAD
1000
<All
  0
SORTENTSTABLE
  5
D11
102
{ACAD_REACTORS
330
D10
102
}
330
D10
100
AcDbSortentsTable
330
1F
331
A35
  5
A37
331
C19
  5
C1B
331
97E
  5
980
331
986
  5
988
331
569
  5
7CF
331
32D
  5
32F
331
D08
  5
D0A
331
98E
  5
990
331
335
  5
337
331
7F0
  5
7F4
331
33D
  5
356
331
2E6
  5
2EE
331
7F8
  5
7FA
331
800
  5
802
331
2EE
  5
2F9
331
A16
  5
A18
331
BF2
  5
BF4
331
BFA
  5
BFC
331
C12
  5
C14
331
A2E
  5
A30
331
808
  5
80A
331
2FE
  5
306
331
44B
  5
494
331
306
  5
308
331
7D1
  5
7D3
331
3DC
  5
3F6
331
C1A
  5
C1C
331
A36
  5
A38
331
9C
  5
9C
331
97F
  5
981
331
987
  5
989
331
ABE
  5
BF1
331
D09
  5
D0B
331
98F
  5
991
331
32E
  5
331
331
7E9
  5
7EB
331
395
  5
398
331
336
  5
33A
331
7F9
  5
7FD
331
4A3
  5
505
331
801
  5
803
331
850
  5
8C9
331
BF3
  5
BF5
331
A17
  5
A2D
331
BFB
  5
BFD
331
356
  5
358
331
A2F
  5
A31
331
C13
  5
C15
331
2F7
  5
2FA
331
809
  5
824
331
43C
  5
44B
331
307
  5
309
331
7D2
  5
7E9
331
A37
  5
A39
331
C1B
  5
C1D
331
980
  5
982
331
A5
  5
2EB
331
ABF
  5
BF2
331
988
  5
98A
331
D0A
  5
D0C
331
32F
  5
332
331
7EA
  5
7EC
331
337
  5
33B
331
494
  5
4A3
331
7FA
  5
7FE
331
802
  5
804
331
990
  5
992
331
D12
  5
A5
331
A18
  5
A2E
331
BF4
  5
BF6
331
BFC
  5
BFE
331
8C9
  5
8CB
331
C14
  5
C16
331
357
  5
359
331
80A
  5
83A
331
43D
  5
458
331
308
  5
30A
331
3CE
  5
3E9
331
7D3
  5
7EA
331
A30
  5
A32
331
C1C
  5
C1E
331
A38
  5
A3A
331
979
  5
97B
331
981
  5
983
331
989
  5
98B
331
D0B
  5
D0D
331
7EB
  5
7ED
331
7F3
  5
7F5
331
397
  5
399
331
83A
  5
85D
331
495
  5
4F8
331
3F6
  5
43D
331
803
  5
808
331
991
  5
993
331
BF5
  5
BF7
331
BFD
  5
BFF
331
8CA
  5
8CE
331
358
  5
35B
331
C15
  5
C17
331
2F9
  5
2FB
331
3AF
  5
3CE
331
301
  5
307
331
505
  5
57F
331
309
  5
30B
331
368
  5
397
331
A31
  5
A33
331
C1D
  5
C1F
331
97A
  5
97C
331
A39
  5
A3B
331
982
  5
984
331
D04
  5
D06
331
98A
  5
98C
331
D0C
  5
D0E
331
331
  5
333
331
7EC
  5
7EE
331
7F4
  5
7F6
331
398
  5
3AF
331
804
  5
809
331
992
  5
994
331
BF6
  5
BF8
331
BFE
  5
C12
331
8CB
  5
979
331
359
  5
368
331
C16
  5
C18
331
2FA
  5
2FD
331
824
  5
850
331
30A
  5
32C
331
A32
  5
A34
331
C1E
  5
CDC
331
A3A
  5
A3C
331
97B
  5
97D
331
A0
  5
2E6
331
983
  5
985
331
D05
  5
D07
331
98B
  5
98D
331
D0D
  5
D0F
331
332
  5
334
331
7ED
  5
7EF
331
7F5
  5
7F7
331
399
  5
3B1
331
33A
  5
33C
331
7FD
  5
7FF
331
2EB
  5
2F7
331
993
  5
A15
331
BF7
  5
BF9
331
BFF
  5
C13
331
C17
  5
C19
331
2FB
  5
2FE
331
3B1
  5
3DC
331
30B
  5
32D
331
A33
  5
A35
331
C1F
  5
D04
331
97C
  5
97E
331
A3B
  5
ABE
331
984
  5
986
331
D06
  5
D08
331
98C
  5
98E
331
458
  5
495
331
7EE
  5
7F0
331
D0E
  5
D12
331
333
  5
335
331
3E9
  5
43C
331
33B
  5
33D
331
7F6
  5
7F8
331
7FE
  5
800
331
57F
  5
7D0
331
994
  5
A16
331
85D
  5
8CA
331
BF8
  5
BFA
331
353
  5
357
331
4F8
  5
569
331
35B
  5
395
331
7CF
  5
7D1
331
C18
  5
C1A
331
A34
  5
A36
331
A3C
  5
ABF
331
97D
  5
97F
331
985
  5
987
331
D07
  5
D09
331
98D
  5
98F
331
32C
  5
32E
331
7EF
  5
7F3
331
334
  5
336
331
33C
  5
353
331
7F7
  5
7F9
331
7FF
  5
801
331
BF1
  5
BF3
331
A15
  5
A17
331
BF9
  5
BFB
331
8CE
  5
97A
331
A2D
  5
A2F
331
2FD
  5
301
331
7D0
  5
7D2
  0
XRECORD
  5
D4E
102
{ACAD_REACTORS
330
D4D
102
}
330
D4D
100
AcDbXrecord
280
     1
102
SHADEPLOT
 70
     0
  0
XRECORD
  5
D50
102
{ACAD_REACTORS
330
D4F
102
}
330
D4F
100
AcDbXrecord
280
     1
102
SHADEPLOT
 70
     0
  0
LAYOUT
  5
22
102
{ACAD_XDICTIONARY
360
D49
102
}
102
{ACAD_REACTORS
330
1A
102
}
330
1A
100
AcDbPlotSettings
  1

  2
EPSON PM-800C
  4
A4
  6

 40
3.757083177566528
 41
14.7637300491333
 42
3.757080078125
 43
3.757080078125
 44
209.9733276367187
 45
296.9683227539062
 46
0.0
 47
0.0
 48
0.0
 49
0.0
140
0.0
141
0.0
142
1.0
143
10.0
 70
 11952
 72
     1
 73
     1
 74
     2
  7

 75
    20
147
0.1
148
0.0
149
0.0
100
AcDbLayout
  1
Model
 70
     1
 71
     0
 10
0.0
 20
0.0
 11
12.0
 21
9.0
 12
0.0
 22
0.0
 32
0.0
 14
0.0
 24
0.0
 34
0.0
 15
0.0
 25
0.0
 35
0.0
146
0.0
 13
0.0
 23
0.0
 33
0.0
 16
1.0
 26
0.0
 36
0.0
 17
0.0
 27
1.0
 37
0.0
 76
     0
330
1F
  0
LAYOUT
  5
1E
102
{ACAD_XDICTIONARY
360
D47
102
}
102
{ACAD_REACTORS
330
1A
102
}
330
1A
100
AcDbPlotSettings
  1

  2
EPSON PM-800C
  4
A4
  6

 40
3.757083177566528
 41
14.7637300491333
 42
3.757080078125
 43
3.757080078125
 44
209.9733276367187
 45
296.9683227539062
 46
0.0
 47
0.0
 48
0.0
 49
0.0
140
0.0
141
0.0
142
1.0
143
1.0
 70
   688
 72
     1
 73
     1
 74
     5
  7

 75
    16
147
1.0
148
0.0
149
0.0
100
AcDbLayout
  1
ﾚｲｱｳﾄ1
 70
     1
 71
     1
 10
-3.757080078125
 20
-3.757083177566528
 11
293.2112426757813
 21
206.2162444591522
 12
0.0
 22
0.0
 32
0.0
 14
27.8447512626648
 24
20.24591643810271
 34
0.0
 15
250.6027613639831
 25
182.2132479429245
 35
0.0
146
0.0
 13
0.0
 23
0.0
 33
0.0
 16
1.0
 26
0.0
 36
0.0
 17
0.0
 27
1.0
 37
0.0
 76
     0
330
1B
331
2E
  0
LAYOUT
  5
26
102
{ACAD_XDICTIONARY
360
D4B
102
}
102
{ACAD_REACTORS
330
1A
102
}
330
1A
100
AcDbPlotSettings
  1

  2
EPSON PM-800C
  4

  6

 40
0.0
 41
0.0
 42
0.0
 43
0.0
 44
0.0
 45
0.0
 46
0.0
 47
0.0
 48
0.0
 49
0.0
140
0.0
141
0.0
142
1.0
143
1.0
 70
   688
 72
     0
 73
     0
 74
     5
  7

 75
    16
147
1.0
148
0.0
149
0.0
100
AcDbLayout
  1
ﾚｲｱｳﾄ2
 70
     1
 71
     2
 10
0.0
 20
0.0
 11
12.0
 21
9.0
 12
0.0
 22
0.0
 32
0.0
 14
0.0
 24
0.0
 34
0.0
 15
0.0
 25
0.0
 35
0.0
146
0.0
 13
0.0
 23
0.0
 33
0.0
 16
1.0
 26
0.0
 36
0.0
 17
0.0
 27
1.0
 37
0.0
 76
     0
330
23
  0
MLINESTYLE
  5
18
102
{ACAD_REACTORS
330
17
102
}
330
17
100
AcDbMlineStyle
  2
STANDARD
 70
     0
  3

 62
   256
 51
90.0
 52
90.0
 71
     2
 49
0.5
 62
   256
  6
BYLAYER
 49
-0.5
 62
   256
  6
BYLAYER
  0
ACDBPLACEHOLDER
  5
F
102
{ACAD_REACTORS
330
E
102
}
330
E
  0
TABLESTYLE
  5
AD1
102
{ACAD_REACTORS
330
AD0
102
}
330
AD0
100
AcDbTableStyle
  3
Standard
 70
     0
 71
     0
 40
1.5
 41
1.5
280
     0
281
     0
  7
Standard
140
4.5
170
     2
 62
     0
 63
     7
283
     0
274
    -2
284
     1
 64
     0
275
    -2
285
     1
 65
     0
276
    -2
286
     1
 66
     0
277
    -2
287
     1
 67
     0
278
    -2
288
     1
 68
     0
279
    -2
289
     1
 69
     0
  7
Standard
140
6.0
170
     5
 62
     0
 63
     7
283
     0
274
    -2
284
     1
 64
     0
275
    -2
285
     1
 65
     0
276
    -2
286
     1
 66
     0
277
    -2
287
     1
 67
     0
278
    -2
288
     1
 68
     0
279
    -2
289
     1
 69
     0
  7
Standard
140
4.5
170
     5
 62
     0
 63
     7
283
     0
274
    -2
284
     1
 64
     0
275
    -2
285
     1
 65
     0
276
    -2
286
     1
 66
     0
277
    -2
287
     1
 67
     0
278
    -2
288
     1
 68
     0
279
    -2
289
     1
 69
     0
  0
DICTIONARYVAR
  5
AD8
102
{ACAD_REACTORS
330
AD7
102
}
330
AD7
100
DictionaryVariables
280
     0
  1
STANDARD
  0
DICTIONARYVAR
  5
D43
102
{ACAD_REACTORS
330
AD7
102
}
330
AD7
100
DictionaryVariables
280
     0
  1
1
  0
DICTIONARYVAR
  5
D44
102
{ACAD_REACTORS
330
AD7
102
}
330
AD7
100
DictionaryVariables
280
     0
  1

  0
DICTIONARY
  5
D49
330
22
100
AcDbDictionary
280
     1
281
     1
  3
ACAD_XREC_ROUNDTRIP
360
D4A
  0
DICTIONARY
  5
D47
330
1E
100
AcDbDictionary
280
     1
281
     1
  3
ACAD_XREC_ROUNDTRIP
360
D48
  0
DICTIONARY
  5
D4B
330
26
100
AcDbDictionary
280
     1
281
     1
  3
ACAD_XREC_ROUNDTRIP
360
D4C
  0
XRECORD
  5
D4A
102
{ACAD_REACTORS
330
D49
102
}
330
D49
100
AcDbXrecord
280
     1
102
SHADEPLOT
 70
     0
102
SHADEPLOTRESLEVEL
 70
     2
102
SHADEPLOTCUSTOMDPI
 70
   300
  0
XRECORD
  5
D48
102
{ACAD_REACTORS
330
D47
102
}
330
D47
100
AcDbXrecord
280
     1
102
SHADEPLOT
 70
     0
102
SHADEPLOTRESLEVEL
 70
     2
102
SHADEPLOTCUSTOMDPI
 70
   300
  0
XRECORD
  5
D4C
102
{ACAD_REACTORS
330
D4B
102
}
330
D4B
100
AcDbXrecord
280
     1
102
SHADEPLOT
 70
     0
102
SHADEPLOTRESLEVEL
 70
     2
102
SHADEPLOTCUSTOMDPI
 70
   300
  0
ENDSEC
  0
EOF
